WWE Monday Night Raw 2012/05/21 [2012 г., Рестлинг, HDTV]

Страницы :  1, 2  След.

Ответить на тему
 

Спартанец ®

Стаж: 5 лет 9 месяцев

Сообщений: 361

WWE Monday Night Raw 2012/05/21
Год выпуска: 2012
Вид спорта: Рестлинг
Участники: Звезды WWE
Продолжительность: 01.29.17
Комментарий: профессиональный (многоголосый, закадровый)
Язык комментариев: Русский
Описание: Еженедельный выпуск RAW. Выпуск от 21-го мая 2012 года
Качество: HDTV
Формат: Mр4
Видео кодек: x264 \ AVC
Аудио кодек: MPEG Audio Layer 3
Видео: MPEG4 Video (H264), 704x400, 29.97fps, 1 422 Kbps
Аудио: MPEG Audio Layer 3, 48000Hz, stereo, 1536kbps, 128 Kbps

MediaInfo

General
Format : MPEG-4
Format profile : Base Media
Codec ID : isom
File size : 992 MiB
Duration : 1h 29mn
Overall bit rate : 1 553 Kbps
Encoded date : UTC 2012-05-21 17:52:06
Tagged date : UTC 2012-05-21 17:52:06
Writing application : Yamb 2.1.0.0 [http://yamb.unite-video.com]
Video
ID : 1
Format : AVC
Format/Info : Advanced Video Codec
Format profile : [email protected]
Format settings, CABAC : Yes
Format settings, ReFrames : 4 frames
Codec ID : avc1
Codec ID/Info : Advanced Video Coding
Duration : 1h 29mn
Bit rate : 1 422 Kbps
Maximum bit rate : 2 635 Kbps
Width : 704 pixels
Height : 400 pixels
Display aspect ratio : 16:9
Frame rate mode : Constant
Frame rate : 29.970 fps
Color space : YUV
Chroma subsampling : 4:2:0
Bit depth : 8 bits
Scan type : Progressive
Bits/(Pixel*Frame) : 0.169
Stream size : 908 MiB (92%)
Writing library : x264 core 122 r2184 5c85e0a
Encoding settings : cabac=1 / ref=5 / deblock=1:0:0 / analyse=0x3:0x113 / me=umh / subme=9 / psy=1 / psy_rd=1.00:0.00 / mixed_ref=1 / me_range=16 / chroma_me=1 / trellis=1 / 8x8dct=1 / cqm=0 / deadzone=21,11 / fast_pskip=1 / chroma_qp_offset=-2 / threads=12 / sliced_threads=0 / nr=0 / decimate=1 / interlaced=0 / bluray_compat=0 / constrained_intra=0 / bframes=3 / b_pyramid=1 / b_adapt=2 / b_bias=0 / direct=3 / weightb=1 / open_gop=0 / weightp=2 / keyint=300 / keyint_min=30 / scenecut=40 / intra_refresh=0 / rc_lookahead=40 / rc=crf / mbtree=1 / crf=19.0 / qcomp=0.60 / qpmin=0 / qpmax=69 / qpstep=4 / vbv_maxrate=1500 / vbv_bufsize=1450 / crf_max=0.0 / nal_hrd=none / ip_ratio=1.40 / aq=1:1.00
Encoded date : UTC 2011-09-08 11:43:25
Tagged date : UTC 2012-05-21 17:53:45
Audio
ID : 2
Format : MPEG Audio
Format version : Version 1
Format profile : Layer 3
Mode : Joint stereo
Mode extension : MS Stereo
Codec ID : 6B
Duration : 1h 29mn
Bit rate mode : Constant
Bit rate : 128 Kbps
Maximum bit rate : 132 Kbps
Channel(s) : 2 channels
Sampling rate : 48.0 KHz
Compression mode : Lossy
Stream size : 81.7 MiB (8%)
Encoded date : UTC 2012-05-21 17:53:40
Tagged date : UTC 2012-05-21 17:53:45

Kaрд

John Cena vs. David Otunga
Randy Orton vs. Alberto Del Rio
Kane vs. Daniel Bryan
Christian vs. Jinder Mahal
Beth Phoenix vs. Kelly Kelly
John Cena and Sheamus vs. Tensai and Dolph Ziggler and Jack Swagger - 2-on-3 Handicap Lumberjack Match

Скриншоты

Создавать темы 24-Май-2012 22:12

[Профиль]  [ЛС] 

AnimeFonaT

Стаж: 5 лет 10 месяцев

Сообщений: 30

Сина Сак Сина Сина Сина Сак 2 боя Сины завтра по 2х2 посмарю

Создавать темы 25-Май-2012 16:44

[Профиль]  [ЛС] 

Спартанец ®

Стаж: 5 лет 9 месяцев

Сообщений: 361

Пипец бардак с ламберджеками вышел ХД

Создавать темы 27-Май-2012 20:32

[Профиль]  [ЛС] 

rey mysterio

Стаж: 5 лет 10 месяцев

Сообщений: 164

где сиды ?

Создавать темы 02-Июн-2012 19:54

[Профиль]  [ЛС] 

Спартанец ®

Стаж: 5 лет 9 месяцев

Сообщений: 361

ты где пропадал ? )

Создавать темы 02-Июн-2012 22:20

[Профиль]  [ЛС] 

rey mysterio

Стаж: 5 лет 10 месяцев

Сообщений: 164

да у меня проблемы , как дома так сразу качаю твои раздачи

Создавать темы 02-Июн-2012 22:35

[Профиль]  [ЛС] 

rey mysterio

Стаж: 5 лет 10 месяцев

Сообщений: 164

так што на полную давай ))

Создавать темы 02-Июн-2012 22:36

[Профиль]  [ЛС] 

rey mysterio

Стаж: 5 лет 10 месяцев

Сообщений: 164

чо за скорость издевательская ? 2 кб/сек

Создавать темы 03-Июн-2012 13:45

[Профиль]  [ЛС] 

NodirAgenT

Стаж: 6 лет 7 месяцев

Сообщений: 204

Summerslam WWE Raw 07/19/10 Залейте Плиссссссс

_________________
Подпись отключена за нарушение правил форума

Создавать темы 04-Июн-2012 20:34

[Профиль]  [ЛС] 

AnimeFonaT

Стаж: 5 лет 10 месяцев

Сообщений: 30

Summerslam WWE Raw 07/19/10 Залейте Плиссссссс
+1
Там Будет Групировка Сины Против Нексуса Эдж и тд и тп И Еси моно залейте Бой Сины С Эджем

Создавать темы 04-Июн-2012 20:49

[Профиль]  [ЛС] 

Kroys

Стаж: 6 лет 1 месяц

Сообщений: 187

Симпатии: 1

ох ты серьёз , да ребят чёткая тема))) спартанец ждёмм)))

Создавать темы 04-Июн-2012 22:12

[Профиль]  [ЛС] 

Спартанец ®

Стаж: 5 лет 9 месяцев

Сообщений: 361

Самерслем, какого года парни ?

Создавать темы 05-Июн-2012 06:19

[Профиль]  [ЛС] 

AnimeFonaT

Стаж: 5 лет 10 месяцев

Сообщений: 30

Самерслем, какого года парни ?
Summerslam WWE Raw 19 Июля 2010 Года
1 скрин TLC
2 Скрин Backlash И Ост Тоже
И Если моно Очень Жду Вот скрин John Cena Vs Edge TLC match Unforgiven 2006 год И Еси Моно BackLAsh 2009( John Cena vs Edge(Last Man Standing Match) 2009



Надеюсь ребята Меня Поддержут (Еси Заинтерисовал ))

Создавать темы 05-Июн-2012 14:51

[Профиль]  [ЛС] 

Emil_Safa

Стаж: 5 лет 5 месяцев

Сообщений: 102

2й скрин Греат Кали с кем??

Создавать темы 05-Июн-2012 15:17

[Профиль]  [ЛС] 

LiX

Стаж: 6 лет 5 месяцев

Сообщений: 254

Симпатии: 6

AnimeFonaT, я тебя поддерживаю!
2й скрин Греат Кали с кем??
Это по-моему Вики Галера или как там её! Ну короче EEEEEXCUUUUSE MEEEEE)))

Создавать темы 05-Июн-2012 18:06

[Профиль]  [ЛС] 
Показать сообщения:    
Ответить на тему

Текущее время: 21-Ноя 01:53

Часовой пояс: UTC + 5



Вы не можете начинать темы
Вы не можете отвечать на сообщения
Вы не можете редактировать свои сообщения
Вы не можете удалять свои сообщения
Вы не можете голосовать в опросах
Вы не можете прикреплять файлы к сообщениям
Вы не можете скачивать файлы