Неоспоримый 3 / Undisputed III: Redemption (Айзек Флорентайн / Isaac Florentine) [2010 г., Боевик, драма, криминал, BDRip 720p]

Ответить на тему
 

Дмитриев ®

Стаж: 7 лет 5 месяцев

Сообщений: 139

Симпатии: 12

Неоспоримый 3 / Undisputed III: Redemption
Год выпуска: 2010
Страна: США
Жанр: Боевик, драма, криминал
Продолжительность: 01:36:02
Перевод: Профессиональный (многоголосый, закадровый)
Режиссер: Айзек Флорентайн / Isaac Florentine
В ролях: Скотт Эдкинс, Майкл Шеннон Дженкинс, Марк Иванир, Христо Шопов, Марко Зарор, Майкл Бэрал, Илрам Чои, Роберт Костанцо, Латиф Кроудер, Эстебан Куето
Описание: Юрий Бойка - российский чемпион подпольных боев без правил, постепенно оправляющийся от полученной в последнем поединке травмы, решает вернуться на ринг. Победив в бою нынешнего чемпиона тюрьмы «Чёрные Холмы», его босс - Гага - решает отправить его на международный чемпионат тюремных поединков. Поврежденное колено дает о себе знать в каждом бою и беспокоит Бойку, но он готов пройти до конца, чтобы сразиться с колумбийским бойцом и доказать, что он неоспоримый.
Качество: BDRip 720p
Формат: MKV
Видео: MPEG4 Video (H264) 1280x720 23.976fps
Аудио #1: Russian: DTS, 6ch, 48 kHz, 1536 kbps avg |Профессиональный (многоголосый, закадровый) |R5|
Аудио #2: Russian: AC3 , 6ch, 48 kHz, 448 kbps avg |Одноголосый закадровый, Д. Строев|
Аудио #3: English: DTS, 6ch, 48 kHz, 1536 kbps avg |Оригинал|
Формат субтитров: softsub (SRT)

Показать Медиа Инфо

Format : Matroska
Format version : Version 2
File size : 6.27 GiB
Duration : 1h 36mn
Overall bit rate : 9 348 Kbps
Movie name : Неоспоримый 3: Искупление
Encoded date : UTC 2011-02-11 21:18:38
Writing application : mkvmerge v2.9.7 ('Tenderness') built on Jul 1 2009 18:43:35
Writing library : libebml v0.7.7 + libmatroska v0.8.1
Video
ID : 1
Format : AVC
Format/Info : Advanced Video Codec
Format profile : [email protected]
Format settings, CABAC : Yes
Format settings, ReFrames : 9 frames
Codec ID : V_MPEG4/ISO/AVC
Duration : 1h 36mn
Bit rate : 5 879 Kbps
Width : 1 280 pixels
Height : 720 pixels
Display aspect ratio : 16:9
Frame rate : 23.976 fps
Color space : YUV
Chroma subsampling : 4:2:0
Bit depth : 8 bits
Scan type : Progressive
Bits/(Pixel*Frame) : 0.266
Stream size : 3.82 GiB (61%)
Title : Неоспоримый 3: Искупление
Writing library : x264 core 104 r1683 62997d6
Encoding settings : cabac=1 / ref=9 / deblock=1:-3:-3 / analyse=0x3:0x113 / me=tesa / subme=10 / psy=1 / psy_rd=0.90:0.00 / mixed_ref=1 / me_range=16 / chroma_me=1 / trellis=2 / 8x8dct=1 / cqm=0 / deadzone=21,11 / fast_pskip=0 / chroma_qp_offset=-2 / threads=6 / sliced_threads=0 / nr=0 / decimate=0 / interlaced=0 / constrained_intra=0 / bframes=8 / b_pyramid=2 / b_adapt=2 / b_bias=0 / direct=3 / weightb=1 / open_gop=0 / weightp=2 / keyint=250 / keyint_min=23 / scenecut=40 / intra_refresh=0 / rc=2pass / mbtree=0 / bitrate=5879 / ratetol=1.0 / qcomp=0.60 / qpmin=10 / qpmax=51 / qpstep=4 / cplxblur=20.0 / qblur=0.5 / ip_ratio=1.40 / pb_ratio=1.30 / aq=1:0.50
Language : English
Default : Yes
Forced : No
Audio #1
ID : 2
Format : DTS
Format/Info : Digital Theater Systems
Codec ID : A_DTS
Duration : 1h 36mn
Bit rate mode : Constant
Bit rate : 1 510 Kbps
Channel(s) : 6 channels
Channel positions : Front: L C R, Side: L R, LFE
Sampling rate : 48.0 KHz
Bit depth : 24 bits
Compression mode : Lossy
Stream size : 1.01 GiB (16%)
Title : DTS - MVO (R5)
Language : Russian
Default : Yes
Forced : No
Audio #2
ID : 3
Format : AC-3
Format/Info : Audio Coding 3
Mode extension : CM (complete main)
Codec ID : A_AC3
Duration : 1h 36mn
Bit rate mode : Constant
Bit rate : 448 Kbps
Channel(s) : 6 channels
Channel positions : Front: L C R, Side: L R, LFE
Sampling rate : 48.0 KHz
Bit depth : 16 bits
Compression mode : Lossy
Stream size : 308 MiB (5%)
Title : AC3 - AVO (Строев)
Language : Russian
Default : No
Forced : No
Audio #3
ID : 4
Format : DTS
Format/Info : Digital Theater Systems
Codec ID : A_DTS
Duration : 1h 36mn
Bit rate mode : Constant
Bit rate : 1 510 Kbps
Channel(s) : 6 channels
Channel positions : Front: L C R, Side: L R, LFE
Sampling rate : 48.0 KHz
Bit depth : 24 bits
Compression mode : Lossy
Stream size : 1.01 GiB (16%)
Title : DTS
Language : English
Default : No
Forced : No
Text #1
ID : 5
Format : UTF-8
Codec ID : S_TEXT/UTF8
Codec ID/Info : UTF-8 Plain Text
Language : Russian
Default : No
Forced : No
Text #2
ID : 6
Format : UTF-8
Codec ID : S_TEXT/UTF8
Codec ID/Info : UTF-8 Plain Text
Language : English
Default : No
Forced : No
Menu
00:00:00.000 : en:00:00:00.000
00:11:31.232 : en:00:11:31.232
00:19:26.457 : en:00:19:26.457
00:28:14.276 : en:00:28:14.276
00:40:06.696 : en:00:40:06.696
00:49:29.341 : en:00:49:29.341
01:01:16.464 : en:01:01:16.464
01:12:28.844 : en:01:12:28.844
01:25:33.337 : en:01:25:33.337
01:32:27.083 : en:01:32:27.083

Показать Скриншоты




Создавать темы 25-Май-2012 10:59

[Профиль]  [ЛС] 

Luke

Стаж: 6 лет 10 месяцев

Сообщений: 31

Можно прибавить скорость отдачи?
А то качает по 4-5 kbps

Создавать темы 29-Май-2012 14:52

[Профиль]  [ЛС] 

30122009

Стаж: 5 лет 9 месяцев

Сообщений: 44

Симпатии: 1

BoYkA ты лутчший

Создавать темы 17-Авг-2012 10:20

[Профиль]  [ЛС] 

intellegentboy

Стаж: 5 лет 6 месяцев

Сообщений: 7

станьте на раздачу пожал)

Создавать темы 19-Авг-2012 13:10

[Профиль]  [ЛС] 

Potroshitel

Стаж: 5 лет 9 месяцев

Сообщений: 47

30122009 ты не прав Чемберс круче из 2 ой части

Создавать темы 20-Авг-2012 17:50

[Профиль]  [ЛС] 

abduvalixon

Стаж: 6 лет 6 месяцев

Сообщений: 36

Симпатии: 2

Дмитриев,если есть Неоспоримый1 пожалуйста залей на раздачу

Создавать темы 30-Авг-2012 09:40

[Профиль]  [ЛС] 

bumblebee

Стаж: 7 лет 3 месяца

Сообщений: 97

Симпатии: 1

ёууу народ кто нить вернитесь на раздачу,плизз!!!

Создавать темы 03-Окт-2012 11:59

[Профиль]  [ЛС] 

otabek142627

Стаж: 5 лет

Сообщений: 8

Дмитриев, помогите пожалуйста с скачать фильм

Создавать темы 05-Фев-2013 21:19

[Профиль]  [ЛС] 

Aleks_T

Стаж: 7 лет

Сообщений: 16

Симпатии: 3

У когонибуть есть трилогия этого фильма??

Создавать темы 07-Фев-2013 21:02

[Профиль]  [ЛС] 

StaFF

Стаж: 4 года 6 месяцев

Сообщений: 41

Дайте скорость пожалуйста

Создавать темы 27-Дек-2013 23:43

[Профиль]  [ЛС] 

nightwish77

Стаж: 5 лет 10 месяцев

Сообщений: 21

Симпатии: 3

люди а как поместить его на диск? :)

Создавать темы 15-Янв-2014 20:13

[Профиль]  [ЛС] 
Показать сообщения:    
Ответить на тему

Текущее время: 22-Ноя 16:09

Часовой пояс: UTC + 5



Вы не можете начинать темы
Вы не можете отвечать на сообщения
Вы не можете редактировать свои сообщения
Вы не можете удалять свои сообщения
Вы не можете голосовать в опросах
Вы не можете прикреплять файлы к сообщениям
Вы не можете скачивать файлы