Детям до 16 (Андрей Кавун) [2010 г., мелодрама, DVDRip]

Ответить на тему
 

jaska-3d ®

Стаж: 5 лет 8 месяцев

Сообщений: 250

Симпатии: 25

Детям до 16
Год выпуска: 2010
Жанр: мелодрама
Продолжительность: 01:28:56
Перевод:не требуется-Режиссер: Андрей Кавун-В ролях: Лянка Грыу, Анна Старшенбаум, Дмитрий Кубасов, Павел Прилучный-Описание: История взросления четырех молодых людей — двух юношей и двух девушек. Вчерашние школьники, они входят в жизнь, полную, как им кажется, чудесных открытий и блестящих возможностей. Неопытные в чувствах и отношениях, они со всего подросткового разбега учатся влюбляться и лгать, приносить себя в жертву и изменять, иногда учась на своих ошибках, иногда – понимая неприятную правду о себе.-Качество: DVDRip
Формат: Flash Video
Видео кодек: Sorenson Spark
Аудио кодек: МР3
Видео: Flash Video 1 720x384 18fps 785kbps [Video]
Аудио: MPEG Audio Layer 3 44100Hz stereo 64kbps [Audio]-

Media Info

General
Complete name : Detyam.do.16..DVDRip.flv
Format : Flash Video
File size : 510 MiB
Duration : 1h 24mn
Overall bit rate mode : Variable
Overall bit rate : 840 Kbps
Tagged date : UTC 2010-10-05 04:14:26
Tagging application : inlet media FLVTool2 v1.0.5 - http://www.inlet-media.de/flvtool2
Video
Format : Sorenson Spark
Codec ID : 2
Duration : 1h 24mn
Bit rate : 767 Kbps
Width : 720 pixels
Height : 384 pixels
Display aspect ratio : 1.875
Frame rate mode : Constant
Frame rate : 17.000 fps
Bit depth : 8 bits
Bits/(Pixel*Frame) : 0.163
Stream size : 489 MiB (96%)
Audio
Format : MPEG Audio
Format version : Version 1
Format profile : Layer 3
Mode : Joint stereo
Codec ID : 2
Codec ID/Hint : MP3
Duration : 1h 24mn
Bit rate mode : Variable
Bit rate : 67.2 Kbps
Channel(s) : 2 channels
Sampling rate : 44.1 KHz
Compression mode : Lossy
Stream size : 44.9 MiB (9%)
-

Скриншоты






Последний раз редактировалось: jaska-3d (2012-06-03 19:40), всего редактировалось 3 раз(а)

Создавать темы 29-Май-2012 11:49

[Профиль]  [ЛС] 

antonio

Стаж: 5 лет 6 месяцев

Сообщений: 88

Симпатии: 1

jaska-3d, опоздал : http://tas-ix.net/viewtopic.php?t=19641

Создавать темы 29-Май-2012 11:51

[Профиль]  [ЛС] 

Sparta

Стаж: 6 лет 11 месяцев

Сообщений: 51

antonio, размеры другие.

Создавать темы 29-Май-2012 13:30

[Профиль]  [ЛС] 

victor0778

Стаж: 6 лет 6 месяцев

Сообщений: 1670

Симпатии: 142

Формат: MPEG???, Видео кодек: XviD???, скриншоты не соответствуют заявленым размерам, поправьте.

Создавать темы 31-Май-2012 23:19

[Профиль]  [ЛС] 

victor0778

Стаж: 6 лет 6 месяцев

Сообщений: 1670

Симпатии: 142

поправил за вас

Создавать темы 04-Июн-2012 07:25

[Профиль]  [ЛС] 

jaska-3d ®

Стаж: 5 лет 8 месяцев

Сообщений: 250

Симпатии: 25

поправил за вас
Thanks !!!

Создавать темы 04-Июн-2012 11:14

[Профиль]  [ЛС] 

root

Стаж: 5 лет 2 месяца

Сообщений: 592

Симпатии: 172

как сам фильм то

Создавать темы 04-Июн-2012 12:36

[Профиль]  [ЛС] 

Sparta

Стаж: 6 лет 11 месяцев

Сообщений: 51

как сам фильм то
хороший)

Создавать темы 25-Июн-2012 18:21

[Профиль]  [ЛС] 

slaiderUZ

Стаж: 5 лет 7 месяцев

Сообщений: 172

Симпатии: 6

фильм не до конца .............

_________________
Подпись отключена за нарушение правил форума

Создавать темы 27-Июн-2012 21:10

[Профиль]  [ЛС] 
Показать сообщения:    
Ответить на тему

Текущее время: 19-Авг 06:31

Часовой пояс: UTC + 5



Вы не можете начинать темы
Вы не можете отвечать на сообщения
Вы не можете редактировать свои сообщения
Вы не можете удалять свои сообщения
Вы не можете голосовать в опросах
Вы не можете прикреплять файлы к сообщениям
Вы не можете скачивать файлы