WWE Friday Night Smackdown 2012/05/25 [2012 г., Рестлинг, HDTV]

Ответить на тему
 

Спартанец ®

Стаж: 5 лет 7 месяцев

Сообщений: 361

WWE Friday Night Smackdown 2012/05/25
Год выпуска: 2012
Вид спорта: Рестлинг
Участники: Звезды WWE
Продолжительность: 01.19.45
Комментарий: профессиональный (многоголосый, закадровый)
Язык комментариев: Русский
Описание: Еженедельный выпуск пятничного Smackdown. Выпуск от 25-го мая 2012 года
Качество: HDTV
Формат: Mр4
Видео кодек: x264/AVC
Аудио кодек: Dolby AC3
Видео: MPEG4 Video, (H264), 704x400, 25fps, 1 500 Kbps
Аудио: Dolby AC3, 48000Hz, stereo, 1536kbps, 192 Kbps

Скриншоты

Кард

Ryback in Action
Non-Title Match: Christian © vs. Hunico
The Usos vs. Titus O'Neal and Darren Young
Non-Title Match: Santino © vs. Ricardo Rodriguez
Non-Title Match: Sheamus © vs. Jack Swagger
Damien Sandow vs. Yoshi Tatsu
Alberto Del Rio vs. Kane vs. Randy Orton

MediaInfo

General
Format : MPEG-4
Format profile : Base Media
Codec ID : isom
File size : 935 MiB
Duration : 1h 19mn
Overall bit rate mode : Constant
Overall bit rate : 1 640 Kbps
Encoded date : UTC 2012-05-25 11:14:52
Tagged date : UTC 2012-05-25 11:14:52
Writing application : Yamb 2.1.0.0 [http://yamb.unite-video.com]
Video
ID : 2
Format : AVC
Format/Info : Advanced Video Codec
Format profile : [email protected]
Format settings, CABAC : Yes
Format settings, ReFrames : 3 frames
Codec ID : avc1
Codec ID/Info : Advanced Video Coding
Duration : 1h 19mn
Bit rate mode : Constant
Bit rate : 1 500 Kbps / 1 500 Kbps
Maximum bit rate : 2 858 Kbps
Width : 704 pixels
Height : 400 pixels
Display aspect ratio : 16:9
Frame rate mode : Constant
Frame rate : 25.000 fps
Standard : NTSC
Color space : YUV
Chroma subsampling : 4:2:0
Bit depth : 8 bits
Scan type : Progressive
Bits/(Pixel*Frame) : 0.213
Stream size : 825 MiB (88%)
Writing library : x264 core 114
Encoding settings : cabac=1 / ref=3 / deblock=1:0:0 / analyse=0x3:0x113 / me=hex / subme=7 / psy=1 / psy_rd=1.00:0.00 / mixed_ref=1 / me_range=16 / chroma_me=1 / trellis=1 / 8x8dct=1 / cqm=2 / deadzone=21,11 / fast_pskip=1 / chroma_qp_offset=-2 / threads=6 / sliced_threads=0 / slices=1 / nr=0 / decimate=1 / interlaced=0 / constrained_intra=0 / bframes=3 / b_pyramid=0 / b_adapt=1 / b_bias=0 / direct=1 / weightb=1 / open_gop=0 / weightp=2 / keyint=250 / keyint_min=25 / scenecut=40 / intra_refresh=0 / rc_lookahead=40 / rc=cbr / mbtree=1 / bitrate=1500 / ratetol=1.0 / qcomp=0.60 / qpmin=3 / qpmax=69 / qpstep=4 / vbv_maxrate=1500 / vbv_bufsize=1490 / nal_hrd=cbr / ip_ratio=1.40 / aq=1:1.00
Tagged date : UTC 2012-05-25 11:16:08
Color primaries : BT.470-6 System B, BT.470-6 System G, BT.601-6 625, BT.1358 625, BT.1700 625 PAL, BT.1700 625 SECAM
Transfer characteristics : BT.470-6 System B, BT.470-6 System G
Matrix coefficients : BT.470-6 System B, BT.470-6 System G, BT.601-6 625, BT.1358 625, BT.1700 625 PAL, BT.1700 625 SECAM, IEC 61966-2-4 601
Audio
ID : 3
Format : AC-3
Format/Info : Audio Coding 3
Mode extension : CM (complete main)
Codec ID : ac-3
Duration : 1h 19mn
Bit rate mode : Constant
Bit rate : 192 Kbps
Channel(s) : 2 channels
Channel positions : Front: L R
Sampling rate : 48.0 KHz
Bit depth : 16 bits
Compression mode : Lossy
Stream size : 110 MiB (12%)
Encoded date : UTC 2012-05-25 11:15:50
Tagged date : UTC 2012-05-25 11:16:08

Создавать темы 29-Май-2012 21:41

[Профиль]  [ЛС] 

Спартанец ®

Стаж: 5 лет 7 месяцев

Сообщений: 361

В эту пятницу Син Кара возвращается :)) Не хватает акробатов а то ))

Создавать темы 29-Май-2012 22:03

[Профиль]  [ЛС] 

aaaaa

Стаж: 5 лет 7 месяцев

Сообщений: 64

В эту пятницу Син Кара возвращается :)) Не хватает акробатов а то ))
Вот это новость))Хорошо что его(её) колено в норме,а как вы узнали???

Создавать темы 29-Май-2012 22:08

[Профиль]  [ЛС] 

RokC

Стаж: 5 лет 8 месяцев

Сообщений: 56

В эту пятницу Син Кара возвращается :)) Не хватает акробатов а то ))
Вот это новость))Хорошо что его(её) колено в норме,а как вы узнали???
сообщали на прошлой неделе на смэкдауне

Создавать темы 29-Май-2012 22:47

[Профиль]  [ЛС] 

RokC

Стаж: 5 лет 8 месяцев

Сообщений: 56

Santino © vs. Ricardo Rodriguez
это серьезно?))

Создавать темы 29-Май-2012 22:48

[Профиль]  [ЛС] 

RokC

Стаж: 5 лет 8 месяцев

Сообщений: 56

Santino © vs. Ricardo Rodriguez
это серьезно?))
я за Сантино

Создавать темы 29-Май-2012 22:49

[Профиль]  [ЛС] 

aaaaa

Стаж: 5 лет 7 месяцев

Сообщений: 64

Santino © vs. Ricardo Rodriguez
это серьезно?))
я за Сантино
Не заметил в кардре,скоро родригес от альберто уйдет и станет вольный рестлером))

Создавать темы 29-Май-2012 22:53

[Профиль]  [ЛС] 

Cenation

Стаж: 5 лет 3 месяца

Сообщений: 7

Кул я смарел тут на этом смекдауне обьявят возвращение в рекламе и еси моно спартанец залей (все возможные для тебя ppw 2010-2011 никогда не видел МАни ин Зе Банк Начал Смареть ДАБИ ДАБИ в Апреле а если тебе не составит труда то БОЙ ЭЖДА И СИНЫ (ПРО КОТОРЫЙ ЭЖД ВСПОМИНАЛ КАДА ГОВОРИЛ ПРОСНИСЬ СИНА

Создавать темы 29-Май-2012 23:04

[Профиль]  [ЛС] 

DOBER_

Стаж: 5 лет 8 месяцев

Сообщений: 56

Симпатии: 1

Ребят а куда делся Мистерио Джеф харди и его напарник???

Создавать темы 30-Май-2012 08:56

[Профиль]  [ЛС] 

rey mysterio

Стаж: 5 лет 8 месяцев

Сообщений: 164

Ребят а куда делся Мистерио Джеф харди и его напарник???
Мистерио дисквалифицировали на 60 дней , где то в июле вернётся, а Джеф Харди выступает в Total Nonstop Action Wrestling (TNA)

Создавать темы 31-Май-2012 11:58

[Профиль]  [ЛС] 

Спартанец ®

Стаж: 5 лет 7 месяцев

Сообщений: 361

Ребят а куда делся Мистерио Джеф харди и его напарник???
Мистерио дисквалифицировали на 60 дней , где то в июле вернётся, а Джеф Харди выступает в Total Nonstop Action Wrestling (TNA)
С ними же по моему и Роб ван Дам и Курт Энгел. Ну и по моему ГМ там Эрик Бишоф

Создавать темы 31-Май-2012 17:41

[Профиль]  [ЛС] 

Kroys

Стаж: 5 лет 11 месяцев

Сообщений: 187

Симпатии: 1

а я то думал куда Харди Бойз исчезли)) оказыца они на ТНА . Спратанец , ТНА интересная вещь ?) зайле 1-2 я посмореть хочу)

Создавать темы 31-Май-2012 18:35

[Профиль]  [ЛС] 

Спартанец ®

Стаж: 5 лет 7 месяцев

Сообщений: 361

Ок )

Создавать темы 31-Май-2012 20:38

[Профиль]  [ЛС] 
Показать сообщения:    
Ответить на тему

Текущее время: 23-Сен 12:31

Часовой пояс: UTC + 5



Вы не можете начинать темы
Вы не можете отвечать на сообщения
Вы не можете редактировать свои сообщения
Вы не можете удалять свои сообщения
Вы не можете голосовать в опросах
Вы не можете прикреплять файлы к сообщениям
Вы не можете скачивать файлы