Проект X: Дорвались / Project X (Нима Нуризаде) [2012 г., комедия, DVDRip]

Ответить на тему
 

jaska-3d ®

Стаж: 5 лет 8 месяцев

Сообщений: 250

Симпатии: 25

Проект X: Дорвались / Project X
-Год выпуска: 2012
Страна: США
Жанр: комедия
Продолжительность: 01:27:53
Перевод: Дублированное [звук с TS]-Режиссер: Нима Нуризаде
Продюссер: Тодд Филлипс, Скотт Будник, Марти П. Юинг
Сценарий: Майкл Бэколл, Мэтт Дрэйк-Бюджет: $12 000 000
Премьера в мире: 1 марта 2012-В ролях: Томас Манн, Оливер Купер, Джонатан Даниэль Браун, Дакс Флэйм, Кирби Блисс Блэнтон, Брэйди Эндер, Ник Нервис, Алексис Кнапп, Майлз Теллер, Питер Маккензи-Описание: Сюжет вращается вокруг троих одноклассников, решивших устроить крутую вечеринку и прославиться на всю округу — правда, удержать события под контролем у них не получилось.- R - Лицам до 17 лет обязательно присутствие взрослого
 
-Качество: DVDRip
Формат: AVI
Bit rate : 969 Kbps
Видео кодек: XviD
Аудио кодек: AC3
Видео: Xvid 624x352 23.976fps [Stream 00]
Аудио: MPEG Audio Layer 3 48000Hz stereo 128kbps [Stream 01]

Скриншоты



Media Info

General
Complete name : Proect.X.2012.D.DVDRip.Epidemz.Net.avi
Format : AVI
Format/Info : Audio Video Interleave
File size : 696 MiB
Duration : 1h 27mn
Overall bit rate : 1 107 Kbps
Writing application : VirtualDubMod 1.5.10.2 (build 2542/release)
Writing library : VirtualDubMod build 2542/release
Video
ID : 0
Format : MPEG-4 Visual
Format profile : Advanced [email protected]
Format settings, BVOP : 2
Format settings, QPel : No
Format settings, GMC : No warppoints
Format settings, Matrix : Default (H.263)
Muxing mode : Packed bitstream
Codec ID : XVID
Codec ID/Hint : XviD
Duration : 1h 27mn
Bit rate : 969 Kbps
Width : 624 pixels
Height : 352 pixels
Display aspect ratio : 16:9
Frame rate : 23.976 fps
Color space : YUV
Chroma subsampling : 4:2:0
Bit depth : 8 bits
Scan type : Progressive
Compression mode : Lossy
Bits/(Pixel*Frame) : 0.184
Stream size : 609 MiB (88%)
Writing library : XviD 64
Audio
ID : 1
Format : MPEG Audio
Format version : Version 1
Format profile : Layer 3
Mode : Joint stereo
Mode extension : MS Stereo
Codec ID : 55
Codec ID/Hint : MP3
Duration : 1h 27mn
Bit rate mode : Constant
Bit rate : 128 Kbps
Channel(s) : 2 channels
Sampling rate : 48.0 KHz
Compression mode : Lossy
Stream size : 80.4 MiB (12%)
Alignment : Aligned on interleaves
Interleave, duration : 42 ms (1.00 video frame)
Interleave, preload duration : 504 ms

Создавать темы 30-Май-2012 19:30

[Профиль]  [ЛС] 

ZLOY BOY

Стаж: 5 лет 3 месяца

Сообщений: 11

Звук нормальный , фильм супер - советую всем посмотреть

Создавать темы 31-Май-2012 10:57

[Профиль]  [ЛС] 

McFLY

Стаж: 5 лет 5 месяцев

Сообщений: 658

Симпатии: 22

+1, карлик из духовки жжот :)
если у кого OST имеется - не стесняйтесь выкладывайте

Создавать темы 31-Май-2012 14:54

[Профиль]  [ЛС] 

Wasabik

Стаж: 6 лет 3 месяца

Сообщений: 58

Симпатии: 1

фильм отличный но помоему это не dvdrip...

Создавать темы 01-Июн-2012 11:58

[Профиль]  [ЛС] 

McFLY

Стаж: 5 лет 5 месяцев

Сообщений: 658

Симпатии: 22

:) +1, Урс, ну ты дал :)

Создавать темы 01-Июн-2012 15:20

[Профиль]  [ЛС] 

mrbest

Стаж: 7 лет 2 месяца

Сообщений: 14

Симпатии: 5

Super!

Создавать темы 02-Июн-2012 18:48

[Профиль]  [ЛС] 

jaska-3d ®

Стаж: 5 лет 8 месяцев

Сообщений: 250

Симпатии: 25

не поверите я сам ещё не смотрел фильм который релизовал (времени не было),
тока седня посмотрел, фильмец проста супер, всем советую посмотреть !!!
+1, карлик из духовки жжот :)
если у кого OST имеется - не стесняйтесь выкладывайте

+

тама везде классные тёлки с аппетитными попами и сисятами, проста улёт

Создавать темы 05-Июн-2012 00:52

[Профиль]  [ЛС] 

vita92

Стаж: 6 лет 4 месяца

Сообщений: 27

Симпатии: 2

встаньте кто нибудь на раздачу(

Создавать темы 10-Июн-2012 22:30

[Профиль]  [ЛС] 

Judas Desperados

Стаж: 5 лет 6 месяцев

Сообщений: 185

Симпатии: 19

Soundtrack
http://tas-ix.net/viewtopic.php?t=48510

Создавать темы 12-Июн-2012 17:40

[Профиль]  [ЛС] 

mp1988

Стаж: 6 лет 6 месяцев

Сообщений: 607

Симпатии: 971

не поверите я сам ещё не смотрел фильм который релизовал (времени не было),
тока седня посмотрел, фильмец проста супер, всем советую посмотреть !!!
+1, карлик из духовки жжот :)
если у кого OST имеется - не стесняйтесь выкладывайте

+

тама везде классные тёлки с аппетитными попами и сисятами, проста улёт
да мне тоже понравился фильм и тёлки конечно

Создавать темы 08-Июл-2012 19:15

[Профиль]  [ЛС] 

slap_nuts

Стаж: 7 лет 2 месяца

Сообщений: 85

а что там в конце.. про них пишут...кто переводил?) напишите здесь.....

Создавать темы 09-Июл-2012 13:41

[Профиль]  [ЛС] 

victor0778

Стаж: 6 лет 6 месяцев

Сообщений: 1670

Симпатии: 142

Проект X: Дорвались / Project X (Нима Нуризаде) [2012 г., Комедия, BDRip 720p]

Создавать темы 30-Дек-2012 01:20

[Профиль]  [ЛС] 

Jack Jons

Стаж: 4 года 7 месяцев

Сообщений: 13

Торрент файл не скачивает((

Создавать темы 07-Янв-2013 21:51

[Профиль]  [ЛС] 
Показать сообщения:    
Ответить на тему

Текущее время: 17-Авг 01:00

Часовой пояс: UTC + 5



Вы не можете начинать темы
Вы не можете отвечать на сообщения
Вы не можете редактировать свои сообщения
Вы не можете удалять свои сообщения
Вы не можете голосовать в опросах
Вы не можете прикреплять файлы к сообщениям
Вы не можете скачивать файлы