Любовь живет три года / L'amour dure trois ans (Фредерик Бегбедер) [2011 г., комедия, DVDRip]

Ответить на тему
 

jaska-3d ®

Стаж: 5 лет 8 месяцев

Сообщений: 250

Симпатии: 25

Любовь живет три года / L'amour dure trois ans -Год выпуска: 2011
Страна: Франция, Бельгия
Жанр: комедия
Продолжительность: 01:33:55
Перевод: профессиональный (полное дублирование)-Режиссер: Фредерик Бегбедер
Продюссер: Майкл Джентиле, Ален Крюгер, Lauraine Heftler
Сценарий: Фредерик Бегбедер, Эжени Грандваль, Кристоф Тюрпи-Премьера в мире: 10 декабря 2011-В ролях: Гаспар Пруст, Луиз Бургуан, Джои Старр, Джонатан Ламберт, Фредерик Бель, Николас Бедос, Элиза Седнауи, Бернар Менез, Анни Дюпре, Тома Жуанне-Описание: Главный герой — журналист Марк Марронье, пишущий светскую хронику. Он уверен, что любовь живёт три года: сначала люди страстно любят друг друга, потом нежно и по-дружески, а потом им становится скучно. Причины таких взглядов кроются в том, что сам Марк никогда не любил больше трёх лет...- 
-Качество:
Формат: AVI
Bit rate : 900 Kbps
Видео кодек: XviD
Аудио кодек: AC3
Видео: MPEG4 Video (H264) 720x304 25fps [Video]
Аудио: AAC 48000Hz stereo 1536kbps [Audio]

Media Info

General
Complete name : Любовь живет три года.mp4
Format : MPEG-4
Format profile : Base Media
Codec ID : isom
File size : 691 MiB
Duration : 1h 33mn
Overall bit rate : 1 029 Kbps
Movie name : lubov_jivet_3_goda.mp4
Writing application : Lavf53.32.100
Video
ID : 1
Format : AVC
Format/Info : Advanced Video Codec
Format profile : [email protected]
Format settings, CABAC : Yes
Format settings, ReFrames : 4 frames
Codec ID : avc1
Codec ID/Info : Advanced Video Coding
Duration : 1h 33mn
Bit rate : 900 Kbps
Width : 720 pixels
Height : 304 pixels
Display aspect ratio : 2.35:1
Frame rate mode : Constant
Frame rate : 25.000 fps
Color space : YUV
Chroma subsampling : 4:2:0
Bit depth : 8 bits
Scan type : Progressive
Bits/(Pixel*Frame) : 0.164
Stream size : 603 MiB (87%)
Writing library : x264 core 120
Encoding settings : cabac=1 / ref=2 / deblock=1:0:0 / analyse=0x1:0x131 / me=umh / subme=6 / psy=0 / mixed_ref=0 / me_range=16 / chroma_me=1 / trellis=0 / 8x8dct=0 / cqm=0 / deadzone=21,11 / fast_pskip=0 / chroma_qp_offset=0 / threads=2 / sliced_threads=0 / nr=0 / decimate=1 / interlaced=0 / bluray_compat=0 / constrained_intra=0 / bframes=2 / b_pyramid=2 / b_adapt=1 / b_bias=0 / direct=3 / weightb=1 / open_gop=0 / weightp=2 / keyint=75 / keyint_min=7 / scenecut=40 / intra_refresh=0 / rc_lookahead=40 / rc=2pass / mbtree=0 / bitrate=900 / ratetol=1.0 / qcomp=0.60 / qpmin=7 / qpmax=51 / qpstep=4 / cplxblur=20.0 / qblur=0.5 / vbv_maxrate=1024 / vbv_bufsize=512 / nal_hrd=none / ip_ratio=1.40 / pb_ratio=1.30 / aq=1:1.00
Language : Russian
Tagged date : UTC 2012-05-12 14:57:21
Audio
ID : 2
Format : AAC
Format/Info : Advanced Audio Codec
Format profile : LC
Codec ID : 40
Duration : 1h 33mn
Bit rate mode : Constant
Bit rate : 128 Kbps
Channel(s) : 2 channels
Channel positions : Front: L R
Sampling rate : 48.0 KHz
Compression mode : Lossy
Stream size : 85.9 MiB (12%)
Language : Russian
Tagged date : UTC 2012-05-12 14:57:21

Скриншоты





Последний раз редактировалось: jaska-3d (2012-05-31 15:28), всего редактировалось 1 раз

Создавать темы 31-Май-2012 09:02

[Профиль]  [ЛС] 

kazantip

Стаж: 6 лет 6 месяцев

Сообщений: 32

по описанию норм думаю

Создавать темы 31-Май-2012 10:28

[Профиль]  [ЛС] 

Mixer City

Стаж: 6 лет 7 месяцев

Сообщений: 754

Симпатии: 63

jaska-3d, и тут нет битрейта видео, допиши.

Создавать темы 31-Май-2012 12:54

[Профиль]  [ЛС] 

dragunov

Стаж: 6 лет 7 месяцев

Сообщений: 71

Симпатии: 6

кстати фильм хороший!Но если кто нибудь читал книгу всё ровно книга намного лучше!

Создавать темы 31-Май-2012 23:28

[Профиль]  [ЛС] 

Imani9

Стаж: 4 года 6 месяцев

Сообщений: 3

Фильм шикарный. Подбор актеров тоже. В общем его лучше посмотреть..

Создавать темы 15-Сен-2013 16:12

[Профиль]  [ЛС] 

zw1t

Стаж: 5 лет 2 месяца

Сообщений: 35

Супер фильм все как в жизни советую всем посмотреть

Создавать темы 25-Сен-2013 16:47

[Профиль]  [ЛС] 

doping-88

Стаж: 4 года 10 месяцев

Сообщений: 11

Симпатии: 1

Дайте скорость пожалуйста!

Создавать темы 21-Авг-2014 11:56

[Профиль]  [ЛС] 
Показать сообщения:    
Ответить на тему

Текущее время: 17-Авг 14:39

Часовой пояс: UTC + 5



Вы не можете начинать темы
Вы не можете отвечать на сообщения
Вы не можете редактировать свои сообщения
Вы не можете удалять свои сообщения
Вы не можете голосовать в опросах
Вы не можете прикреплять файлы к сообщениям
Вы не можете скачивать файлы