Любовник / L'amant (Жан-Жак Анно) [1992 г., драма, мелодрама, биография, DVDRip]

Ответить на тему
 

jaska-3d ®

Стаж: 5 лет 9 месяцев

Сообщений: 250

Симпатии: 25

Любовник / L'amant -Год выпуска: 1992
Страна: Франция, Великобритания, Вьетнам
Жанр: драма, мелодрама, биография
Продолжительность: 111 мин. / 01:55:21
Перевод: профессиональный (полное дублирование)-Режиссер: Жан-Жак Анно
Продюссер: Клод Берри, Тимоти Баррилл, Жак Тронель
Сценарий: Жан-Жак Анно, Жерар Браш, Маргерит Дюрас-Премьера в мире: 22 января 1992-В ролях: Джейн Марч, Тони Люн Ка Фай, Фредерика Мейнинже, Арно Джованинетти, Мельвиль Пупо, Лиза Фолкнер, Сиэм Ман, Филипп Ле Дем, Энн Шофюсс, Квач Ван Ан- : 30-е годы. Колониальный Сайгон. Красивый, богатый, изысканный китаец знакомится с француженкой. Ей лет пятнадцать. Их любовь под родительским запретом. Но такую «империю чувств», пленительную и прочную, разрушить никому не дано.- R - Лицам до 17 лет обязательно присутствие взрослого
 
-Качество: DVDRip
Формат: AVI
Bit rate : 1 497 Kbps
Видео кодек: XviD
Аудио кодек: MP3
Видео: Xvid 736x400 23.976fps [Stream 00]
Аудио: MPEG Audio Layer 3 48000Hz stereo 192kbps [Stream 01]

Доп. информация

Это был первый западный фильм после 1975 г., снятый во Вьетнаме. Начало съемок было в 1989 г., на экран фильм вышел 22 января 1992 года (Франция). Номинации премии «Оскар» за «лучшую операторскую работу» и Японской киноакадемии в номинации «Лучший иностранный фильм», победитель французской премии «Сезар» за «лучшую музыку» и Golden Reel Award (США) за «лучшую музыку» (всё — 1993 г.).
Съёмки : Режиссёр Анно посетил Вьетнам в рамках подготовки к съёмкам в 1989 г., но был разочарован обстановкой (крысы и пауки в лучшей колониальной гостинице, отсутствие кондиционеров и прочее). В итоге он решил снимать фильм о Вьетнаме там, где традиционно это делали западные режиссёры — в Таиланде, Малайзии или на Филиппинах.
«Я разослал помощников по тем местам, и они возвращаются оттуда с болезнями и с историями, как весело провели время на прекрасных курортах. Ничего похожего с тем, что я почувствовал, побывав на тех рисовых полях Вьетнама, среди тех обветшалых колониальных зданий…»
Потому спустя год он решил снимать во Вьетнаме. По словам студии и режиссёра, их фильм был первым западным фильмом с 1975 года о Вьетнаме, снятым во Вьетнаме.
Начались съёмки фильма 14 января 1991 г. Через два месяца после этой даты Джейн Марч исполнилось восемнадцать. Это была её первая роль в кино, но она уже была топ-моделью. Жена режиссёра увидела её фото в журнале Just Seventeen, и обратила на неё внимание мужа
Хотя правительство Вьетнама в этот период вышло из изоляционизма и было доброжелательно к иностранцам, все съёмки и сценарная работа проходили по согласованию с властями. Потому все сцены сексуального характера снимались в Париже. Всего съёмки заняли 135 дней и обошлись в 30 млн долларов.

Media Info

General
Complete name : Lubovnik.avi
Format : AVI
Format/Info : Audio Video Interleave
File size : 1.37 GiB
Duration : 1h 55mn
Overall bit rate : 1 698 Kbps
Writing application : VirtualDubMod 1.5.4.1 (build 2178/release)
Writing library : VirtualDubMod build 2178/release
Video
ID : 0
Format : MPEG-4 Visual
Format profile : Advanced [email protected]
Format settings, BVOP : 2
Format settings, QPel : No
Format settings, GMC : No warppoints
Format settings, Matrix : Default (MPEG)
Muxing mode : Packed bitstream
Codec ID : XVID
Codec ID/Hint : XviD
Duration : 1h 55mn
Bit rate : 1 497 Kbps
Width : 736 pixels
Height : 400 pixels
Display aspect ratio : 16:9
Frame rate : 23.976 fps
Color space : YUV
Chroma subsampling : 4:2:0
Bit depth : 8 bits
Scan type : Progressive
Compression mode : Lossy
Bits/(Pixel*Frame) : 0.212
Stream size : 1.21 GiB (88%)
Writing library : XviD 1.0.0 RC1 (Niltze) (UTC 2004-01-26)
Audio
ID : 1
Format : MPEG Audio
Format version : Version 1
Format profile : Layer 3
Codec ID : 55
Codec ID/Hint : MP3
Duration : 1h 55mn
Bit rate mode : Constant
Bit rate : 192 Kbps
Channel(s) : 2 channels
Sampling rate : 48.0 KHz
Compression mode : Lossy
Stream size : 158 MiB (11%)
Alignment : Aligned on interleaves
Interleave, duration : 42 ms (1.00 video frame)
Interleave, preload duration : 504 ms
Writing library : LAME3.94 (beta)

Скриншоты





Последний раз редактировалось: jaska-3d (2012-06-01 23:23), всего редактировалось 9 раз(а)

Создавать темы 31-Май-2012 09:28

[Профиль]  [ЛС] 

Aziz1314

Стаж: 7 лет 1 месяц

Сообщений: 331

Симпатии: 13

Хороший фильм ...

Создавать темы 31-Май-2012 09:32

[Профиль]  [ЛС] 

zoit

Стаж: 5 лет 3 месяца

Сообщений: 4

зачем не будем скачат?

Создавать темы 31-Май-2012 17:49

[Профиль]  [ЛС] 

victor0778

Стаж: 6 лет 7 месяцев

Сообщений: 1670

Симпатии: 142

jaska-3d, У меня ни постер ни скриншоты не отображаются

Создавать темы 01-Июн-2012 07:34

[Профиль]  [ЛС] 

jaska-3d ®

Стаж: 5 лет 9 месяцев

Сообщений: 250

Симпатии: 25

вот ещё постеры к фильму

Постер


Создавать темы 01-Июн-2012 23:29

[Профиль]  [ЛС] 

alisher--1988

Стаж: 5 лет 3 месяца

Сообщений: 1

jaska-3d,

Создавать темы 20-Июн-2012 12:23

[Профиль]  [ЛС] 

welfare1988

Стаж: 5 лет 8 месяцев

Сообщений: 1

скорости бы)

Создавать темы 07-Фев-2014 22:57

[Профиль]  [ЛС] 
Показать сообщения:    
Ответить на тему

Текущее время: 21-Сен 13:35

Часовой пояс: UTC + 5



Вы не можете начинать темы
Вы не можете отвечать на сообщения
Вы не можете редактировать свои сообщения
Вы не можете удалять свои сообщения
Вы не можете голосовать в опросах
Вы не можете прикреплять файлы к сообщениям
Вы не можете скачивать файлы