WWE Monday Night Raw 2012/05/28 [2012 г., Рестлинг, HDTV]

Ответить на тему
 

Спартанец ®

Стаж: 5 лет 10 месяцев

Сообщений: 361

WWE Monday Night Raw 2012/05/28
Год выпуска: 2012
Вид спорта: Рестлинг
Участники: Звезды WWE
Продолжительность: 01.33.04
Комментарий: профессиональный (многоголосый, закадровый)
Язык комментариев: Русский
Описание: Еженедельный выпуск RAW. Выпуск от 28-го мая 2012 года
Качество: HDTV
Формат: Mр4
Видео кодек: x264 \ AVC
Аудио кодек: MPEG Audio Layer 3
Видео: MPEG4 Video (H264), 704x400, 29.97fps, 1 416 Kbps
Аудио: MPEG Audio Layer 3, 48000Hz, stereo, 1536kbps, 128 Kbps

MediaInfo

General
Format : MPEG-4
Format profile : Base Media
Codec ID : isom
File size : 1.01 GiB
Duration : 1h 33mn
Overall bit rate : 1 547 Kbps
Encoded date : UTC 2012-05-28 15:30:28
Tagged date : UTC 2012-05-28 15:30:28
Writing application : Yamb 2.1.0.0 [http://yamb.unite-video.com]
Video
ID : 1
Format : AVC
Format/Info : Advanced Video Codec
Format profile : [email protected]
Format settings, CABAC : Yes
Format settings, ReFrames : 4 frames
Codec ID : avc1
Codec ID/Info : Advanced Video Coding
Duration : 1h 33mn
Bit rate : 1 416 Kbps
Maximum bit rate : 2 631 Kbps
Width : 704 pixels
Height : 400 pixels
Display aspect ratio : 16:9
Frame rate mode : Constant
Frame rate : 29.970 fps
Color space : YUV
Chroma subsampling : 4:2:0
Bit depth : 8 bits
Scan type : Progressive
Bits/(Pixel*Frame) : 0.168
Stream size : 942 MiB (92%)
Writing library : x264 core 125 r2200 999b753
Encoding settings : cabac=1 / ref=5 / deblock=1:0:0 / analyse=0x3:0x113 / me=umh / subme=9 / psy=1 / psy_rd=1.00:0.00 / mixed_ref=1 / me_range=16 / chroma_me=1 / trellis=1 / 8x8dct=1 / cqm=0 / deadzone=21,11 / fast_pskip=1 / chroma_qp_offset=-2 / threads=12 / lookahead_threads=2 / sliced_threads=0 / nr=0 / decimate=1 / interlaced=0 / bluray_compat=0 / constrained_intra=0 / bframes=3 / b_pyramid=1 / b_adapt=2 / b_bias=0 / direct=3 / weightb=1 / open_gop=0 / weightp=2 / keyint=300 / keyint_min=30 / scenecut=40 / intra_refresh=0 / rc_lookahead=40 / rc=crf / mbtree=1 / crf=19.0 / qcomp=0.60 / qpmin=0 / qpmax=69 / qpstep=4 / vbv_maxrate=1500 / vbv_bufsize=1450 / crf_max=0.0 / nal_hrd=none / ip_ratio=1.40 / aq=1:1.00
Encoded date : UTC 2011-09-08 11:43:25
Tagged date : UTC 2012-05-28 15:32:49
Audio
ID : 2
Format : MPEG Audio
Format version : Version 1
Format profile : Layer 3
Mode : Joint stereo
Mode extension : MS Stereo
Codec ID : 6B
Duration : 1h 33mn
Bit rate mode : Constant
Bit rate : 128 Kbps
Maximum bit rate : 132 Kbps
Channel(s) : 2 channels
Sampling rate : 48.0 KHz
Compression mode : Lossy
Stream size : 85.2 MiB (8%)
Encoded date : UTC 2012-05-28 15:32:40
Tagged date : UTC 2012-05-28 15:32:49

Kaрд

Santino Marella vs. Dolph Ziggler vs. Jack Swagger - Triple Threat Match
Lord Tensai vs. Alex Riley
Mark Henry vs. CM Punk - WWE Championship Match
Kofi Kingston vs. Cody Rhodes
The Miz vs. Zack Ryder

Скриншоты

Создавать темы 31-Май-2012 20:11

[Профиль]  [ЛС] 

ygapHuK

Стаж: 5 лет 9 месяцев

Сообщений: 153

на 2 скриншоте убийца)

Создавать темы 31-Май-2012 20:25

[Профиль]  [ЛС] 

Спартанец ®

Стаж: 5 лет 10 месяцев

Сообщений: 361

Пугало он огородное а не убийца :)) Матхун Чакраборти )) Сейчас ТНА залью, Ударник ) Глянь если не видел, то качай на здоровье )

Создавать темы 31-Май-2012 20:42

[Профиль]  [ЛС] 

Cenation

Стаж: 5 лет 6 месяцев

Сообщений: 7

зАВТРА НА 2Х2 ПОСМАРЮ И ЩМЯКДАУН пОСЛЕЗАВТРА

Создавать темы 01-Июн-2012 21:23

[Профиль]  [ЛС] 

ygapHuK

Стаж: 5 лет 9 месяцев

Сообщений: 153

а где Наши модераторы?
и Мою тему не проверили пока...

Создавать темы 02-Июн-2012 18:01

[Профиль]  [ЛС] 

Спартанец ®

Стаж: 5 лет 10 месяцев

Сообщений: 361

Та ладно, качают парни и то хорошо :)

Создавать темы 02-Июн-2012 22:21

[Профиль]  [ЛС] 

ygapHuK

Стаж: 5 лет 9 месяцев

Сообщений: 153

Я тоже кста качаю,отпишусь потом=)

Создавать темы 02-Июн-2012 23:57

[Профиль]  [ЛС] 
Показать сообщения:    
Ответить на тему

Текущее время: 17-Дек 15:14

Часовой пояс: UTC + 5



Вы не можете начинать темы
Вы не можете отвечать на сообщения
Вы не можете редактировать свои сообщения
Вы не можете удалять свои сообщения
Вы не можете голосовать в опросах
Вы не можете прикреплять файлы к сообщениям
Вы не можете скачивать файлы