TNA.Lockdown [2012 г., Рестлинг, HDTV]

Ответить на тему
 

Спартанец ®

Стаж: 5 лет 7 месяцев

Сообщений: 361

TNA Lockdown
Год выпуска: 2012
Вид спорта: Рестлинг
Участники: TNA Superstars
Продолжительность: 02.51.05
Комментарий: профессиональный (многоголосый, закадровый)
Описание: Новое PPV от TNA
Качество: HDTV
Формат: Mр4
Видео кодек: x264/AVC
Аудио кодек: AАC
Видео: MPEG4 Video (H264), 704x400, 29.97fps, 1 467 Kbps
Аудио: AAC, 48000Hz, stereo, 1536kbps, 192 Kbps

Скриншоты

Кард

Lethal Lockdown match: If Team Eric wins, Garett must leave TNA. If Team Garett wins, Eric must leave TNA and renounce his name.
Team Eric (Eric Bischoff (Captain), Gunner, Bully Ray, Christopher Daniels and Kazarian)
vs
Team Garett (Garett Bischoff (Captain), A.J. Styles, Austin Aries, Mr. Anderson and Rob Van Dam)
Steel Cage match for the TNA World Tag Team Championship:
The Motor City Machine Guns (Alex Shelley and Chris Sabin) vs Magnus and Samoa Joe
Steel Cage match for the TNA Television Championship:
Robbie E (with Rob Terry) vs Devon
Steel Cage match for the TNA Women's Knockout Championship:
Velvet Sky vs Gail Kim (with Madison Rayne)
Steel Cage match:
Matt Morgan vs Crimson
Steel Cage match:
Kurt Angle vs Jeff Hardy
Steel Cage match for the TNA Knockouts Tag Team Championship:
Sarita and Rosita vs ODB and Eric Young
Steel Cage match for the TNA World Heavyweight Championship:
James Storm vs Bobby Roode

MediaInfo

General
Format : MPEG-4
Format profile : Base Media / Version 2
Codec ID : mp42
File size : 2.00 GiB
Duration : 2h 51mn
Overall bit rate mode : Variable
Overall bit rate : 1 677 Kbps
Encoded date : UTC 2011-09-08 11:43:25
Tagged date : UTC 2011-09-08 11:43:25
Video
ID : 1
Format : AVC
Format/Info : Advanced Video Codec
Format profile : [email protected]
Format settings, CABAC : Yes
Format settings, ReFrames : 4 frames
Codec ID : avc1
Codec ID/Info : Advanced Video Coding
Duration : 2h 51mn
Bit rate : 1 467 Kbps
Width : 704 pixels
Height : 400 pixels
Display aspect ratio : 16:9
Frame rate mode : Constant
Frame rate : 29.970 fps
Color space : YUV
Chroma subsampling : 4:2:0
Bit depth : 8 bits
Scan type : Progressive
Bits/(Pixel*Frame) : 0.174
Stream size : 1.75 GiB (87%)
Writing library : x264 core 122 r2183 c522ad1
Encoding settings : cabac=1 / ref=5 / deblock=1:0:0 / analyse=0x3:0x113 / me=umh / subme=9 / psy=1 / psy_rd=1.00:0.00 / mixed_ref=1 / me_range=16 / chroma_me=1 / trellis=1 / 8x8dct=1 / cqm=0 / deadzone=21,11 / fast_pskip=1 / chroma_qp_offset=-2 / threads=12 / sliced_threads=0 / nr=0 / decimate=1 / interlaced=0 / bluray_compat=0 / constrained_intra=0 / bframes=3 / b_pyramid=1 / b_adapt=2 / b_bias=0 / direct=3 / weightb=1 / open_gop=0 / weightp=2 / keyint=300 / keyint_min=30 / scenecut=40 / intra_refresh=0 / rc_lookahead=40 / rc=crf / mbtree=1 / crf=19.0 / qcomp=0.60 / qpmin=0 / qpmax=69 / qpstep=4 / vbv_maxrate=1500 / vbv_bufsize=1450 / crf_max=0.0 / nal_hrd=none / ip_ratio=1.40 / aq=1:1.00
Encoded date : UTC 2011-09-08 11:43:25
Tagged date : UTC 2011-09-08 11:43:25
Audio
ID : 2
Format : AAC
Format/Info : Advanced Audio Codec
Format profile : LC
Codec ID : 40
Duration : 2h 51mn
Bit rate mode : Variable
Bit rate : 192 Kbps
Channel(s) : 2 channels
Channel positions : Front: L R
Sampling rate : 48.0 KHz
Compression mode : Lossy
Stream size : 232 MiB (11%)
Encoded date : UTC 2011-09-08 11:43:25
Tagged date : UTC 2011-09-08 11:43:25

Создавать темы 31-Май-2012 20:55

[Профиль]  [ЛС] 

Kroys

Стаж: 5 лет 11 месяцев

Сообщений: 187

Симпатии: 1

ух ты ёмаё , весит 2гб ((( пофигу качать буду :)

Создавать темы 31-Май-2012 23:07

[Профиль]  [ЛС] 

ygapHuK

Стаж: 5 лет 7 месяцев

Сообщений: 153

буду качать,раздавайте :)

Создавать темы 01-Июн-2012 18:03

[Профиль]  [ЛС] 

Kroys

Стаж: 5 лет 11 месяцев

Сообщений: 187

Симпатии: 1

качать буду долго , но упорно)))

Создавать темы 03-Июн-2012 11:21

[Профиль]  [ЛС] 

Kroys

Стаж: 5 лет 11 месяцев

Сообщений: 187

Симпатии: 1

Спартанец , кул Бои 1 понравился и где Курт Анджел и Джефф Харди)) спс) слух поищи видосы бои Джеффа Харди , с лестницами там еще какие нибудь плизОО)) буду рад

Создавать темы 05-Июн-2012 02:00

[Профиль]  [ЛС] 

Спартанец ®

Стаж: 5 лет 7 месяцев

Сообщений: 361

Меня заказами завалили )) Я по возможности буду выкладывать то, что будет под рукой :)

Создавать темы 05-Июн-2012 17:50

[Профиль]  [ЛС] 

Emil_Safa

Стаж: 5 лет 3 месяца

Сообщений: 102

Cпартанец ,а где выпуски смакдауна и рава недавниe?

Создавать темы 05-Июн-2012 17:55

[Профиль]  [ЛС] 

Спартанец ®

Стаж: 5 лет 7 месяцев

Сообщений: 361

Cпартанец ,а где выпуски смакдауна и рава недавниe?
В единоборствах

Создавать темы 05-Июн-2012 23:15

[Профиль]  [ЛС] 

ygapHuK

Стаж: 5 лет 7 месяцев

Сообщений: 153

нееее,Вы что,Я не могу такое смотреть :D,но спасибо,Спартанец,поднимаем уровень трекера :)

Создавать темы 06-Июн-2012 04:21

[Профиль]  [ЛС] 
Показать сообщения:    
Ответить на тему

Текущее время: 24-Сен 22:27

Часовой пояс: UTC + 5



Вы не можете начинать темы
Вы не можете отвечать на сообщения
Вы не можете редактировать свои сообщения
Вы не можете удалять свои сообщения
Вы не можете голосовать в опросах
Вы не можете прикреплять файлы к сообщениям
Вы не можете скачивать файлы