Титаник. Последняя тайна (Россия, ВГТРК) (Анастасия Попова) [2012 г., Документальный (Исторический), HDTVRip-AVC]

Ответить на тему
 

shahz ®

Стаж: 5 лет 9 месяцев

Сообщений: 192

Симпатии: 9

Титаник. Последняя тайна (Россия, ВГТРК)- -Год выпуска: 2012
Жанр: Документальный (Исторический)
Продолжительность: 01:28:41-Режиссер: Алексей Васильев, Анастасия Попова
Автор сценария: Мария Бондиленко, Кирилл Вертяев
Продюссеры: Валерий Бабич, Влад Рашин
Текст за кадром: Сергей Чонишвилли, Владимир Еремин-Описание: Ровно век назад, в ночь на 15 апреля 1912 года, в холодных водах Атлантики потерпел крушение самый большой, самый комфортабельный, самый безопасный океанский корабль начала XX века. Невероятное количество жертв – полторы тысячи человек!
Прошло 100 лет. За это время все мифы, загадки, легенды вокруг катастрофы развенчаны, событие расписано буквально по минутам. Люди даже рискнули опуститься в бездну, на глубину почти 4000 метров, чтобы увидеть своими глазами остов гигантского лайнера и найти истинную причину гибели корабля.
Казалось бы, тайн больше нет. Но этот фильм впервые раскроет еще одну тайну, ушедшую на дно вместе с легендарным кораблем: на борту «Титаника» были пассажиры с русскими паспортами! Кто они? Зачем отправились за океан? Как сложилась их судьба? Никто никогда в России не занимался поиском русского следа в истории «Титаника».
Создатели фильма провели невероятно трудную работу по поиску русских имен. Ведь точных списков пассажиров до сих пор не существует. Они ушли на дно вместе с кораблем.- -Качество: HDTVRip-AVC
Формат: MP4
Видео кодек: Другой MPEG4
Аудио кодек: AAC
Видео: MPEG4 Video (H264) 640x360 25fps, Bit rate: 600 Kbps
Аудио: 48000Hz stereo 1536kbps

Медиа инфо

Format : MPEG-4
Format profile : Base Media
Codec ID : isom
File size : 451 MiB
Duration : 1h 28mn
Overall bit rate : 711 Kbps
Writing application : Lavf53.3.1
Video
ID : 1
Format : AVC
Format/Info : Advanced Video Codec
Format profile : [email protected]
Format settings, CABAC : Yes
Format settings, ReFrames : 4 frames
Codec ID : avc1
Codec ID/Info : Advanced Video Coding
Duration : 1h 28mn
Bit rate : 600 Kbps
Width : 640 pixels
Height : 360 pixels
Display aspect ratio : 16:9
Original display aspect ratio : 16:9
Frame rate mode : Constant
Frame rate : 25.000 fps
Color space : YUV
Chroma subsampling : 4:2:0
Bit depth : 8 bits
Scan type : Progressive
Bits/(Pixel*Frame) : 0.104
Stream size : 386 MiB (86%)
Writing library : x264 core 115 r1995 c1e60b9
Encoding settings : cabac=1 / ref=3 / deblock=1:0:0 / analyse=0x3:0x113 / me=hex / subme=7 / psy=1 / psy_rd=1.00:0.00 / mixed_ref=1 / me_range=16 / chroma_me=1 / trellis=1 / 8x8dct=1 / cqm=0 / deadzone=21,11 / fast_pskip=1 / chroma_qp_offset=-2 / threads=4 / sliced_threads=0 / nr=0 / decimate=1 / interlaced=0 / bluray_compat=0 / constrained_intra=0 / bframes=3 / b_pyramid=2 / b_adapt=1 / b_bias=0 / direct=1 / weightb=0 / open_gop=1 / weightp=2 / keyint=25 / keyint_min=13 / scenecut=40 / intra_refresh=0 / rc_lookahead=25 / rc=abr / mbtree=1 / bitrate=600 / ratetol=1.0 / qcomp=0.60 / qpmin=10 / qpmax=69 / qpstep=4 / ip_ratio=1.41 / aq=1:1.00
Audio
ID : 2
Format : AAC
Format/Info : Advanced Audio Codec
Format profile : LC
Codec ID : 40
Duration : 1h 28mn
Bit rate mode : Constant
Bit rate : 96.0 Kbps
Channel(s) : 2 channels
Channel positions : Front: L R
Sampling rate : 48.0 KHz
Compression mode : Lossy
Delay relative to video : -2ms
Stream size : 60.9 MiB (14%)

Скриншоты






Последний раз редактировалось: shahz (2014-02-23 16:46), всего редактировалось 12 раз(а)

Создавать темы 04-Июн-2012 00:15

[Профиль]  [ЛС] 

victor0778

Стаж: 6 лет 10 месяцев

Сообщений: 1670

Симпатии: 142

Аудио кодек: AC3, а здесь Аудио: AAC 48000Hz stereo 1536kbps и лог медиа инфо добавьте

Создавать темы 04-Июн-2012 07:34

[Профиль]  [ЛС] 

shahz ®

Стаж: 5 лет 9 месяцев

Сообщений: 192

Симпатии: 9

а теперь ?

Создавать темы 04-Июн-2012 09:16

[Профиль]  [ЛС] 

shahz ®

Стаж: 5 лет 9 месяцев

Сообщений: 192

Симпатии: 9

Почему в этой теме стоит статус ? недооформлено ???
Модераторов так мало или не успевают или лень проверять ???
Не могу создать новую тему, так как говорит сначало переоформите старые 2, бла бла... bu

Создавать темы 04-Июн-2012 16:48

[Профиль]  [ЛС] 

Mactavish

Стаж: 6 лет 3 месяца

Сообщений: 38

Эй, а где все раздача будет или нет аа.

Создавать темы 01-Июл-2012 16:04

[Профиль]  [ЛС] 

Sergey89

Стаж: 4 года 8 месяцев

Сообщений: 29

Кто на раздаче?

Создавать темы 15-Июл-2013 01:59

[Профиль]  [ЛС] 

Рустем86

Стаж: 4 года 5 месяцев

Сообщений: 43

Симпатии: 3

скорость дайте очень хочу скачать???

Создавать темы 27-Июл-2013 19:03

[Профиль]  [ЛС] 

Sergey89

Стаж: 4 года 8 месяцев

Сообщений: 29

встаньте кто нить на раздачу!

Создавать темы 09-Авг-2013 23:59

[Профиль]  [ЛС] 

kosha89

Стаж: 5 лет 11 месяцев

Сообщений: 7

Фильм офигительный! Я в таком восторге от просмотра была и то что ЭТО сняла Россия большой поклон!!!

Создавать темы 22-Сен-2013 21:37

[Профиль]  [ЛС] 

Dimon

Стаж: 7 лет 6 месяцев

Сообщений: 63

народ кто качает или раздает пожалуйста на раздачу добавьте тоже ато у меня раздача высокая а приема нифига!!!

Создавать темы 11-Фев-2015 20:49

[Профиль]  [ЛС] 

CREDO_2006

Стаж: 5 лет 10 месяцев

Сообщений: 19

Симпатии: 1

Спасибо всем создателям фильма, они так детально описали трагедию непотопляемого великого Титаника, спасибо и Сергею Чонишвили который замечательно читает тексты фильма.

Создавать темы 13-Фев-2015 13:02

[Профиль]  [ЛС] 
Показать сообщения:    
Ответить на тему

Текущее время: 16-Дек 23:49

Часовой пояс: UTC + 5



Вы не можете начинать темы
Вы не можете отвечать на сообщения
Вы не можете редактировать свои сообщения
Вы не можете удалять свои сообщения
Вы не можете голосовать в опросах
Вы не можете прикреплять файлы к сообщениям
Вы не можете скачивать файлы