WWE Friday Night Smackdown 2012/06/01 [2012 г., Рестлинг, HDTV]

Страницы :  1, 2  След.

Ответить на тему
 

Спартанец ®

Стаж: 5 лет 6 месяцев

Сообщений: 361

WWE Friday Night Smackdown 2012/06/01
Год выпуска: 2012
Вид спорта: Рестлинг
Участники: Звезды WWE
Продолжительность: 01.21.46
Комментарий: профессиональный (многоголосый, закадровый)
Язык комментариев: Русский
Описание: Еженедельный выпуск пятничного Smackdown. Выпуск от 01-го июня 2012 года
Качество: HDTV
Формат: Mр4
Видео кодек: x264/AVC
Аудио кодек: Dolby AC3
Видео: MPEG4 Video, (H264), 704x400, 25fps, 1 500 Kbps
Аудио: Dolby AC3, 48000Hz, stereo, 1536kbps, 192 Kbps

Скриншоты

Кард

Sin Cara vs. Heath Slater
Damien Sandow vs. Ezekiel Jackson
Ryback in Action
Non-Title Match: Sheamus © vs. Dolph Ziggler
Santino Marella and Zack Ryder vs. Darren Young and Titus O'Neil
Cody Rhodes vs. Tyson Kidd
WWE Title Match: CM Punk © vs. Kane

MediaInfo

General
Format : MPEG-4
Format profile : Base Media
Codec ID : isom
File size : 991 MiB
Duration : 1h 21mn
Overall bit rate : 1 694 Kbps
Encoded date : UTC 2012-06-01 00:13:14
Tagged date : UTC 2012-06-01 00:13:14
Writing application : Yamb 2.1.0.0 [http://yamb.unite-video.com]
Video
ID : 1
Format : AVC
Format/Info : Advanced Video Codec
Format profile : [email protected]
Format settings, CABAC : Yes
Format settings, ReFrames : 3 frames
Codec ID : avc1
Codec ID/Info : Advanced Video Coding
Duration : 1h 21mn
Bit rate : 1 500 Kbps
Maximum bit rate : 7 270 Kbps
Width : 704 pixels
Height : 400 pixels
Display aspect ratio : 16:9
Frame rate mode : Constant
Frame rate : 25.000 fps
Color space : YUV
Chroma subsampling : 4:2:0
Bit depth : 8 bits
Scan type : Progressive
Bits/(Pixel*Frame) : 0.213
Stream size : 877 MiB (89%)
Writing library : x264 core 79
Encoding settings : cabac=1 / ref=3 / deblock=1:0:0 / analyse=0x3:0x113 / me=hex / subme=7 / psy=1 / psy_rd=1.0:0.0 / mixed_ref=0 / me_range=16 / chroma_me=1 / trellis=1 / 8x8dct=1 / cqm=0 / deadzone=21,11 / chroma_qp_offset=-2 / threads=9 / nr=0 / decimate=1 / mbaff=0 / constrained_intra=0 / bframes=3 / b_pyramid=0 / b_adapt=2 / b_bias=0 / direct=1 / wpredb=0 / wpredp=2 / keyint=250 / keyint_min=25 / scenecut=40 / rc_lookahead=40 / rc=2pass / mbtree=1 / bitrate=1500 / ratetol=1.0 / qcomp=0.60 / qpmin=10 / qpmax=51 / qpstep=4 / cplxblur=20.0 / qblur=0.5 / ip_ratio=1.40 / aq=1:1.00
Encoded date : UTC 2012-06-01 10:07:36
Tagged date : UTC 2012-06-01 00:15:00
Color primaries : BT.709-5, BT.1361, IEC 61966-2-4, SMPTE RP177
Transfer characteristics : BT.709-5, BT.1361
Matrix coefficients : BT.709-5, BT.1361, IEC 61966-2-4 709, SMPTE RP177
Audio
ID : 2
Format : AC-3
Format/Info : Audio Coding 3
Mode extension : CM (complete main)
Codec ID : ac-3
Duration : 1h 21mn
Bit rate mode : Constant
Bit rate : 192 Kbps
Channel(s) : 2 channels
Channel positions : Front: L R
Sampling rate : 48.0 KHz
Bit depth : 16 bits
Compression mode : Lossy
Stream size : 112 MiB (11%)
Encoded date : UTC 2012-06-01 00:14:31
Tagged date : UTC 2012-06-01 00:15:00

Создавать темы 05-Июн-2012 18:34

[Профиль]  [ЛС] 

Emil_Safa

Стаж: 5 лет 2 месяца

Сообщений: 102

Ура Син Кара вернулся(лась,лось)осталось вернутся только Рею))

Создавать темы 05-Июн-2012 18:59

[Профиль]  [ЛС] 

AnimeFonaT

Стаж: 5 лет 7 месяцев

Сообщений: 30

Залей Плисс
Краткая Инфа Прошлый раз ты наверно не все понял на wwe night Raw 19 июля John Cena представил свою команду против нексуса 7 человек (Джон Сина, Джон Моррисон, Р-Труф, Брет Харт, Эдж, Крис Джерико и Дэниель Брайан)
Против Нексуса (Уэйд Баррет, Дэвид Отунга, Джастин Гэбриел, Хит Слэйтер, Даррен Янг, Скип Шеффилд и Майкл Тарвер) Бой 7 на 7 на вылет бой состоялся на саммерслеме 2010 15 августа

BackLash 2009

John Cena vs Edge(Last Man Standing Match (Очень хочу посмареть ( если это тот матч про который расказывал Эдж Джону Сине Перед Словами Проснись Сина ( BacklAsh 2009)
John Cena Vs Edge TLC match Unforgiven 2006 год
Надеюсь ребята Меня Поддержут (Еси Заинтерисовал ))

Создавать темы 05-Июн-2012 21:26

[Профиль]  [ЛС] 

Emil_Safa

Стаж: 5 лет 2 месяца

Сообщений: 102

Я так понел что Вики Гарреро против Греат Кали?))

Создавать темы 05-Июн-2012 22:14

[Профиль]  [ЛС] 

Спартанец ®

Стаж: 5 лет 6 месяцев

Сообщений: 361

Будет время скачаю

Создавать темы 05-Июн-2012 23:10

[Профиль]  [ЛС] 

Спартанец ®

Стаж: 5 лет 6 месяцев

Сообщений: 361

Я так понел что Вики Гарреро против Греат Кали?))
Какая Вики Герейро ? Это же Сантино Марела.

Создавать темы 05-Июн-2012 23:13

[Профиль]  [ЛС] 

nikita

Стаж: 6 лет 10 месяцев

Сообщений: 82

Симпатии: 4

ради син кары скачать стоит

Создавать темы 06-Июн-2012 08:51

[Профиль]  [ЛС] 

AnimeFonaT

Стаж: 5 лет 7 месяцев

Сообщений: 30



Создавать темы 06-Июн-2012 08:59

[Профиль]  [ЛС] 

Kroys

Стаж: 5 лет 10 месяцев

Сообщений: 187

Симпатии: 1

а мне нужен бой харди бойз))Джефф вс Матт ) а так же Сины

Создавать темы 06-Июн-2012 11:05

[Профиль]  [ЛС] 

Спартанец ®

Стаж: 5 лет 6 месяцев

Сообщений: 361

Ну ребята у вас и аппетит проснулся )) еще полгода назад радовались рестлманиям выложеным здесь. А теперь прям гурманы все стали - то не хочу, мне это подавай :))

Создавать темы 06-Июн-2012 20:13

[Профиль]  [ЛС] 

Kroys

Стаж: 5 лет 10 месяцев

Сообщений: 187

Симпатии: 1

ахах ну ты же знаешь нас))) это же МЫ!) ФАНыЫЫ:)

Создавать темы 06-Июн-2012 21:05

[Профиль]  [ЛС] 

nikita

Стаж: 6 лет 10 месяцев

Сообщений: 82

Симпатии: 4

скорость не много больше.не помешало бы.уже пол дня качаю.

Создавать темы 07-Июн-2012 09:44

[Профиль]  [ЛС] 

AnimeFonaT

Стаж: 5 лет 7 месяцев

Сообщений: 30

Спартанец, Помоги скачать Braggin Rights 2010 И реслманию 27 ваще не качает

Создавать темы 07-Июн-2012 11:19

[Профиль]  [ЛС] 

Спартанец ®

Стаж: 5 лет 6 месяцев

Сообщений: 361

27-ая Рестлмания не моя ))С Брегином помогу )

Создавать темы 07-Июн-2012 18:23

[Профиль]  [ЛС] 

Спартанец ®

Стаж: 5 лет 6 месяцев

Сообщений: 361

Спартанец, Помоги скачать Braggin Rights 2010 И реслманию 27 ваще не качает
27-ая Рестлмания не моя ))С Брегином помогу )

Создавать темы 07-Июн-2012 18:23

[Профиль]  [ЛС] 
Показать сообщения:    
Ответить на тему

Текущее время: 19-Авг 17:57

Часовой пояс: UTC + 5



Вы не можете начинать темы
Вы не можете отвечать на сообщения
Вы не можете редактировать свои сообщения
Вы не можете удалять свои сообщения
Вы не можете голосовать в опросах
Вы не можете прикреплять файлы к сообщениям
Вы не можете скачивать файлы