Копы в глубоком запасе / Cops in a deep reserve (Адам МакКей) [2010 г., боевик, комедия, криминал, DVDRip]

Ответить на тему
 

Jentelman ®

Стаж: 5 лет 9 месяцев

Сообщений: 48

Копы в глубоком запасе / Cops in a deep reserve
Год выпуска: 2010
Страна: США
Жанр: боевик, комедия, криминал
Продолжительность: 01:43:00
Перевод: Профессиональный (полное дублирование)
Режиссер: Адам МакКей
Продюссер: Джимми Миллер, Патрик Краули, Уилл Феррелл
Сценарий: Адам МакКей, Крис Хенчи
Бюджет: $100 000 000 | В США $119 219 978 | В России $3 313 021
Премьера в мире: В мире 2 августа 2010 | В России 30 сентября 2010, «WDSSPR» | На DVD 28 октября 2010, «Columbia/Sony»
В ролях: Уилл Феррелл, Марк Уолберг, Ева Мендес, Сэмюэл Л. Джексон, Дуэйн Джонсон, Дэймон Уайанс мл., Майкл Китон, Роб Риггл, Стив Кугэн, Рэй Стивенсон
Описание: Нью-Йоркские детективы Аллен Гэмбл и Терри Хойтз ведут полицейскую бухгалтерию. Гэмблу такая работа в радость, Хойтзу — наказание. Когда напарникам представится шанс выйти из тени — прийти на помощь своим кумирам, детективам Дэнсону и Манцетти — станет ясно, что в бухгалтерию Гэмбла и Хойтза сослали не зря…
 
детям до 13 лет просмотр не желателен
Качество: DVDRip
Формат: MP4
Видео: AVC, 640x272, 23.976 fps, 508 Kbps
Аудио: AAC, 48000Hz, stereo, 165 kbps

MediaInfo

General
Complete name : D:\Видео\Кино\Качество 100%\Cops v Glubokom pripase.mp4
Format : MPEG-4
Format profile : Base Media
Codec ID : isom
File size : 522 MiB
Duration : 1h 47mn
Overall bit rate mode : Variable
Overall bit rate : 680 Kbps
Video
ID : 1
Format : AVC
Format/Info : Advanced Video Codec
Format profile : [email protected]
Format settings, CABAC : Yes
Format settings, ReFrames : 5 frames
Codec ID : avc1
Codec ID/Info : Advanced Video Coding
Duration : 1h 47mn
Source duration : 21mn 33s
Bit rate : 508 Kbps
Width : 640 pixels
Height : 272 pixels
Display aspect ratio : 2.35:1
Frame rate mode : Variable
Frame rate : 23.976 fps
Minimum frame rate : 11.988 fps
Maximum frame rate : 23.976 fps
Color space : YUV
Chroma subsampling : 4:2:0
Bit depth : 8 bits
Scan type : Progressive
Bits/(Pixel*Frame) : 0.122
Stream size : 391 MiB (75%)
Source stream size : 391 MiB
Writing library : x264 core 85 Ubuntu_2:0.85.1448+git1a6d32-4
Encoding settings : cabac=1 / ref=5 / deblock=1:0:0 / analyse=0x3:0x113 / me=umh / subme=8 / psy=1 / psy_rd=1.00:0.00 / mixed_ref=1 / me_range=16 / chroma_me=1 / trellis=1 / 8x8dct=1 / cqm=0 / deadzone=21,11 / fast_pskip=1 / chroma_qp_offset=-2 / threads=12 / sliced_threads=0 / nr=0 / decimate=1 / mbaff=0 / constrained_intra=0 / bframes=3 / b_pyramid=2 / b_adapt=2 / b_bias=0 / direct=3 / wpredb=1 / wpredp=2 / keyint=250 / keyint_min=25 / scenecut=40 / intra_refresh=0 / rc_lookahead=50 / rc=crf / mbtree=1 / crf=22.0 / qcomp=0.60 / qpmin=10 / qpmax=51 / qpstep=4 / ip_ratio=1.41 / aq=1:1.00
Audio
ID : 2
Format : AAC
Format/Info : Advanced Audio Codec
Format profile : LC
Codec ID : 40
Duration : 1h 47mn
Bit rate mode : Variable
Bit rate : 165 Kbps
Channel(s) : 2 channels
Channel positions : Front: L R
Sampling rate : 48.0 KHz
Compression mode : Lossy
Stream size : 127 MiB (24%)

Скриншот





Последний раз редактировалось: Jentelman (2012-07-12 23:54), всего редактировалось 1 раз

Создавать темы 07-Июн-2012 15:57

[Профиль]  [ЛС] 

Jentelman ®

Стаж: 5 лет 9 месяцев

Сообщений: 48

basma4, извиняюсь, но там же не все правильно создано!

Создавать темы 07-Июн-2012 16:33

[Профиль]  [ЛС] 

Jentelman ®

Стаж: 5 лет 9 месяцев

Сообщений: 48

Jentelman, Перевод: Профессиональный (полное дублирование) РУСКИ АНГЛИСКИ ИЛИ 'У'ЗБЕККИСКИ ''''Профессиональный (полное дублирование),,,, КАК ЕТА

Создавать темы 07-Июн-2012 18:41

[Профиль]  [ЛС] 

Max

Стаж: 6 лет 11 месяцев

Сообщений: 70

Симпатии: 2

ты там раздавать собираешься*\?

Создавать темы 10-Июн-2012 02:11

[Профиль]  [ЛС] 

Kaiser_S

Стаж: 8 лет 5 месяцев

Сообщений: 25

за 34 часа 5,9% закачено всего, ужас!

Создавать темы 10-Июн-2012 10:14

[Профиль]  [ЛС] 

Max

Стаж: 6 лет 11 месяцев

Сообщений: 70

Симпатии: 2

нет реально не понимаю зачем релизить если раздавать не собирается. хотя бы одному раздай!!!

Создавать темы 12-Июн-2012 09:25

[Профиль]  [ЛС] 

Kaiser_S

Стаж: 8 лет 5 месяцев

Сообщений: 25

+1

Создавать темы 12-Июн-2012 12:56

[Профиль]  [ЛС] 

Kakcam

Стаж: 6 лет 10 месяцев

Сообщений: 137

Симпатии: 7

скорость!!!!!!1

Создавать темы 19-Фев-2013 00:23

[Профиль]  [ЛС] 
Показать сообщения:    
Ответить на тему

Текущее время: 18-Окт 23:42

Часовой пояс: UTC + 5



Вы не можете начинать темы
Вы не можете отвечать на сообщения
Вы не можете редактировать свои сообщения
Вы не можете удалять свои сообщения
Вы не можете голосовать в опросах
Вы не можете прикреплять файлы к сообщениям
Вы не можете скачивать файлы