WWE Королевская битва / WWE Royal Rumble 2011 [2011 г., Реслинг, HDTVRip]

Страницы :  1, 2  След.

Ответить на тему
 

Emil_Safa ®

Стаж: 5 лет 4 месяца

Сообщений: 102

WWE Королевская битва / WWE Royal Rumble 2011
Год выпуска: 2011
Вид спорта: Реслинг
Участники: Звезды WWE
Продолжительность: 02:45:27
Комментарий: любительский (двухголосый)
Описание: Реслинг — это жесткость, динамичность и зрелищность! В WWE Royal Rumble вам выпадает шанс увидеть чемпионов в этом виде борьбы. Путь к славе непрост: вас ждут яростные поединки с хладнокровными и бескомпромиссными противниками со стальными мускулами, участие в серии состязаний и подводные камни закулисных интриг. Жестокие подрезающие удары, броски за пределы арены— здесь нет запретов.
Качество: HDTVRip
Формат: AVI
Видео кодек: XviD
Аудио кодек: MP3
Видео: 720х400, 29.97 fps, 1 642 Kbps
Аудио: 48 KHz, 2ch (stereo), 128 Kbps
+ саундтрек Royal Rumble 2011

MediaInfo

Format : AVI
Format/Info : Audio Video Interleave
Format profile : OpenDML
File size : 2.06 GiB
Duration : 2h 45mn
Overall bit rate : 1 785 Kbps
Writing application : VirtualDubMod 1.5.10.3 | www.virtualdub-fr.org || (build 2550/release)
Writing library : VirtualDubMod build 2550/release
Video
ID : 0
Format : MPEG-4 Visual
Format profile : Advanced [email protected]
Format settings, BVOP : 2
Format settings, QPel : No
Format settings, GMC : No warppoints
Format settings, Matrix : Default (MPEG)
Codec ID : XVID
Codec ID/Hint : XviD
Duration : 2h 45mn
Bit rate : 1 642 Kbps
Width : 720 pixels
Height : 400 pixels
Display aspect ratio : 16:9
Frame rate : 29.970 fps
Color space : YUV
Chroma subsampling : 4:2:0
Bit depth : 8 bits
Scan type : Progressive
Compression mode : Lossy
Bits/(Pixel*Frame) : 0.190
Stream size : 1.90 GiB (92%)
Writing library : XviD 1.2.1 (UTC 2008-12-04)
Audio
ID : 1
Format : MPEG Audio
Format version : Version 1
Format profile : Layer 3
Mode : Joint stereo
Mode extension : MS Stereo
Codec ID : 55
Codec ID/Hint : MP3
Duration : 2h 45mn
Bit rate mode : Constant
Bit rate : 128 Kbps
Channel(s) : 2 channels
Sampling rate : 48.0 KHz
Compression mode : Lossy
Stream size : 151 MiB (7%)
Alignment : Aligned on interleaves
Interleave, duration : 33 ms (1.00 video frame)
Interleave, preload duration : 504 ms

Кард

World Heavtweight Championship
Edge vs. Dolph Ziggler
WWE Chamionship
Randy Orton vs. The Miz
2-on-1 Handicap Match Divas Championship
Laycool(Layla & Michelle McCool) vs. Natalya
Royal Rumble
Звезды WWE

Скриншоты




Последний раз редактировалось: Emil_Safa (2012-06-09 16:43), всего редактировалось 6 раз(а)

Создавать темы 08-Июн-2012 23:52

[Профиль]  [ЛС] 

Спартанец

Стаж: 5 лет 8 месяцев

Сообщений: 361

Красава :))

Создавать темы 09-Июн-2012 08:31

[Профиль]  [ЛС] 

rey mysterio

Стаж: 5 лет 9 месяцев

Сообщений: 164

СПС)+1

Создавать темы 09-Июн-2012 09:00

[Профиль]  [ЛС] 

Emil_Safa ®

Стаж: 5 лет 4 месяца

Сообщений: 102

Красава :))
Cпасибо,мне до вас еще много)

Создавать темы 09-Июн-2012 12:08

[Профиль]  [ЛС] 

Emil_Safa ®

Стаж: 5 лет 4 месяца

Сообщений: 102

Народ куда пропал Джонни Морисон?

Создавать темы 09-Июн-2012 14:29

[Профиль]  [ЛС] 

Спартанец

Стаж: 5 лет 8 месяцев

Сообщений: 361

Ты бы оформил релиз свой до конца :) А то скачать не получится ) надо бит рейт видео и аудио указать

Создавать темы 09-Июн-2012 16:26

[Профиль]  [ЛС] 

Pendalf

Стаж: 6 лет 4 месяца

Сообщений: 416

Симпатии: 34

Emil_Safa, подправил тех. данные за вас. Впредь, оформляйте подобным образом

Создавать темы 09-Июн-2012 19:17

[Профиль]  [ЛС] 

Emil_Safa ®

Стаж: 5 лет 4 месяца

Сообщений: 102

Emil_Safa, подправил тех. данные за вас. Впредь, оформляйте подобным образом
Cпасибо.

Создавать темы 09-Июн-2012 19:20

[Профиль]  [ЛС] 

Спартанец

Стаж: 5 лет 8 месяцев

Сообщений: 361

Emil_Safa, подправил тех. данные за вас. Впредь, оформляйте подобным образом
Cпасибо.
Слушай Кэпа, он всегда дело говорит :)

Создавать темы 09-Июн-2012 19:33

[Профиль]  [ЛС] 

Emil_Safa ®

Стаж: 5 лет 4 месяца

Сообщений: 102

Комментарий: любительский (двухголосый) от 545tv

Создавать темы 09-Июн-2012 20:10

[Профиль]  [ЛС] 

Kroys

Стаж: 6 лет

Сообщений: 187

Симпатии: 1

ну так да серьёзно , Джон Моррисон куды пропал???

Создавать темы 09-Июн-2012 22:45

[Профиль]  [ЛС] 

Спартанец

Стаж: 5 лет 8 месяцев

Сообщений: 361

тогда в правке напиши - (б) Язык комментариев (б): Русский

Создавать темы 09-Июн-2012 22:45

[Профиль]  [ЛС] 

rey mysterio

Стаж: 5 лет 9 месяцев

Сообщений: 164

Куда раздающий убежал?

Создавать темы 10-Июн-2012 09:49

[Профиль]  [ЛС] 

AnimeFonaT

Стаж: 5 лет 9 месяцев

Сообщений: 30

СПС Большое

Создавать темы 10-Июн-2012 10:05

[Профиль]  [ЛС] 

Emil_Safa ®

Стаж: 5 лет 4 месяца

Сообщений: 102

Cегодня сколько успею раздам(дела),с понедельника буду целый день раздавать!

Создавать темы 10-Июн-2012 10:32

[Профиль]  [ЛС] 
Показать сообщения:    
Ответить на тему

Текущее время: 21-Окт 06:25

Часовой пояс: UTC + 5



Вы не можете начинать темы
Вы не можете отвечать на сообщения
Вы не можете редактировать свои сообщения
Вы не можете удалять свои сообщения
Вы не можете голосовать в опросах
Вы не можете прикреплять файлы к сообщениям
Вы не можете скачивать файлы