WWE Backlash [2009 г., Рестлинг, HDTV]

Ответить на тему
 

Спартанец ®

Стаж: 5 лет 8 месяцев

Сообщений: 361

- WWE Backlash
Год выпуска: 2009
Вид спорта: Рестлинг
Участники: Звезды WWE
Продолжительность: 02.55.19
Комментарий: профессиональный (многоголосый, закадровый)
Язык комментариев: Английский
Описание: Коллекционное PPV от WWE
Качество: HDTV
Формат: AVI
Видео кодек: XviD
Аудио кодек: MPEG Audio Layer
Видео: Xvid, 640x368, 25fps, 1 024 Kbps
Аудио: MPEG Audio Layer 3, 44100Hz, stereo, 128kbps,

Скриншоты

Кард

Triple H, Shane McMahon & Batista vs The Legacy (WWE Championship)
John Cena vs Edge (World Heavyweight Championship)
Jack Swagger vs Christian (ECW Championship)
Jeff Hardy vs Matt Hardy ("I Quit" Match)
Chris Jericho Vs Ricky Steamboat
CM Punk Vs Kane
Santina on Khali Kiss Cam

MediaInfo

General
Format : AVI
Format/Info : Audio Video Interleave
File size : 1.43 GiB
Duration : 2h 55mn
Overall bit rate : 1 164 Kbps
Video
ID : 0
Format : MPEG-4 Visual
Format profile : Advanced [email protected]
Format settings, BVOP : 2
Format settings, QPel : No
Format settings, GMC : No warppoints
Format settings, Matrix : Default (H.263)
Codec ID : XVID
Codec ID/Hint : XviD
Duration : 2h 55mn
Bit rate : 1 024 Kbps
Width : 640 pixels
Height : 368 pixels
Display aspect ratio : 16:9
Frame rate : 25.000 fps
Color space : YUV
Chroma subsampling : 4:2:0
Bit depth : 8 bits
Scan type : Progressive
Compression mode : Lossy
Bits/(Pixel*Frame) : 0.174
Stream size : 1.25 GiB (88%)
Writing library : XviD 1.1.2 (UTC 2006-11-01)
Audio
ID : 1
Format : MPEG Audio
Format version : Version 1
Format profile : Layer 3
Mode : Joint stereo
Mode extension : MS Stereo
Codec ID : 55
Codec ID/Hint : MP3
Duration : 2h 55mn
Bit rate mode : Constant
Bit rate : 128 Kbps
Channel(s) : 2 channels
Sampling rate : 44.1 KHz
Compression mode : Lossy
Stream size : 160 MiB (11%)
Alignment : Aligned on interleaves
Interleave, duration : 26 ms (0.65 video frame)
Interleave, preload duration : 809 ms

Создавать темы 09-Июн-2012 09:00

[Профиль]  [ЛС] 

rey mysterio

Стаж: 5 лет 9 месяцев

Сообщений: 164

СПС))+1

Создавать темы 09-Июн-2012 10:48

[Профиль]  [ЛС] 

LiX

Стаж: 6 лет 4 месяца

Сообщений: 254

Симпатии: 6

Спс крутяк! Как будет время начну качать

Создавать темы 09-Июн-2012 18:42

[Профиль]  [ЛС] 

Kroys

Стаж: 6 лет

Сообщений: 187

Симпатии: 1

АлилУЯ!)) ураа) спс :)

Создавать темы 09-Июн-2012 18:54

[Профиль]  [ЛС] 

AnimeFonaT

Стаж: 5 лет 9 месяцев

Сообщений: 30






Последний раз редактировалось: AnimeFonaT (2012-06-10 14:17), всего редактировалось 1 раз

Создавать темы 10-Июн-2012 10:06

[Профиль]  [ЛС] 

AnimeFonaT

Стаж: 5 лет 9 месяцев

Сообщений: 30

Интересно Это тот Матч Про который Говорил Эдж Я чесно на 100 % не уверен там было 2 варианта Прост

Создавать темы 10-Июн-2012 10:06

[Профиль]  [ЛС] 

AnimeFonaT

Стаж: 5 лет 9 месяцев

Сообщений: 30

Скорости Дайте

Создавать темы 10-Июн-2012 10:07

[Профиль]  [ЛС] 

NodirAgenT

Стаж: 6 лет 6 месяцев

Сообщений: 204

Залейти плисс Elimination Chamber (2012) Elimination Chamber (2011) ( полностью еси моно )
Елси Хотите Могу перечислить кто с кем А хотя луше Скрин

В Этом ППВ Сина заталкнет Кеина В Скорую Помощь классный Файт Но я не видел

зАРАНЕЕ СПС

_________________
Подпись отключена за нарушение правил форума

Создавать темы 10-Июн-2012 21:25

[Профиль]  [ЛС] 

Kroys

Стаж: 6 лет

Сообщений: 187

Симпатии: 1

СПАРТАНЕЦ скачай и залей плиз Judgment day за 17 мая , про который показывали в Бэкслаше плизз) заранее спс :)

Создавать темы 12-Июн-2012 02:47

[Профиль]  [ЛС] 

LiX

Стаж: 6 лет 4 месяца

Сообщений: 254

Симпатии: 6

Ребята дайте скорости а то качает 4 кб/с !!!

Создавать темы 12-Июн-2012 12:57

[Профиль]  [ЛС] 

NodirAgenT

Стаж: 6 лет 6 месяцев

Сообщений: 204

СКОРОСТИ КАПЕЦ БОЛЬШЕ ВСЕЯ Я ПРОСИЛ И ***** Те А не скорость Получается Похходу Многие с Раздачи Свалили

_________________
Подпись отключена за нарушение правил форума

Создавать темы 13-Июн-2012 09:53

[Профиль]  [ЛС] 

NodirAgenT

Стаж: 6 лет 6 месяцев

Сообщений: 204

Ребята Жесть Новая Инфа О NO WAY OUT(e) Смарите ( ЛОринайтс Может Быть Будет Уволен Новые Условия Боя Сины и Биг Шоу http://tas-ix.net/viewtopic.php?p=390932#390932

_________________
Подпись отключена за нарушение правил форума

Создавать темы 13-Июн-2012 10:11

[Профиль]  [ЛС] 

NodirAgenT

Стаж: 6 лет 6 месяцев

Сообщений: 204

Дайте Скачать

_________________
Подпись отключена за нарушение правил форума

Создавать темы 13-Июн-2012 22:57

[Профиль]  [ЛС] 
Показать сообщения:    
Ответить на тему

Текущее время: 19-Окт 21:32

Часовой пояс: UTC + 5



Вы не можете начинать темы
Вы не можете отвечать на сообщения
Вы не можете редактировать свои сообщения
Вы не можете удалять свои сообщения
Вы не можете голосовать в опросах
Вы не можете прикреплять файлы к сообщениям
Вы не можете скачивать файлы