Полуфиналы гран при Strikeforce 2011. [2011 г., MMA]

Ответить на тему
 

Bayrin ®

Стаж: 5 лет 9 месяцев

Сообщений: 7

Симпатии: 1

Полуфиналы гран при Strikeforce 2011.
Год выпуска: 2011
Вид спорта: MMA
Участники: Кормье, Антонио Силва, Барнетт, Харитонов
Продолжительность: 14м 58с
Комментарий: профессиональный (двухголосый)
Описание: Полуфинальные поединки прошедшего гран при Strikeforce, в которых сошлись новая звезда MMA Даниэл Кормье с Антонио "Бигфут" Силвой, а звезда уходящая Джош Барнетт - с хорошим ударником Александром Харитоновым.

Скриншоты + тех. данные по файлу Cormier - Silva

Качество: HDTVRip
Формат: FLV
Видео кодек: AVC
Аудио кодек: AAC
Видео: AVC, 640x360, 29.970 fps, 777 Kbps.
Аудио: AAC-LC, 44.1 KHz, 2 ch, 94.4 Kbps

Скриншоты



MediaInfo

General
Complete name : D:\Downloads\Полуфиналы гран-при Strikeforce\Cormier - Silva.flv
Format : Flash Video
File size : 34.1 MiB
Duration : 5mn 6s
Overall bit rate : 934 Kbps
Tagged date : UTC 2011-09-12 19:22:57
Tagging application : flvmeta 1.1-r202
provider : Namba Media
Video
Format : AVC
Format/Info : Advanced Video Codec
Format profile : [email protected]
Format settings, CABAC : Yes
Format settings, ReFrames : 3 frames
Codec ID : 7
Duration : 5mn 6s
Bit rate : 777 Kbps
Width : 640 pixels
Height : 360 pixels
Display aspect ratio : 16:9
Frame rate mode : Constant
Frame rate : 29.970 fps
Color space : YUV
Chroma subsampling : 4:2:0
Bit depth : 8 bits
Scan type : Progressive
Bits/(Pixel*Frame) : 0.113
Stream size : 29.2 MiB (86%)
Audio
Format : AAC
Format/Info : Advanced Audio Codec
Format profile : LC
Codec ID : 10
Duration : 5mn 6s
Bit rate : 125 Kbps
Channel(s) : 2 channels
Channel positions : Front: L R
Sampling rate : 44.1 KHz
Compression mode : Lossy
Stream size : 4.84 MiB (14%)

Скриншоты + тех. данные по файлу Barnett - Kharitonov

Качество: HDTVRip
Формат: FLV
Видео кодек: AVC
Аудио кодек: AAC
Видео: AVC, 480x360, 30.000 fps, 468 Kbps.
Аудио: AAC-LC, 44.1 KHz, 2 ch, 125 Kbps

Скриншоты



MediaInfo

General
Complete name : D:\Downloads\Полуфиналы гран-при Strikeforce\Barnett - Kharitonov.flv
Format : Flash Video
File size : 41.3 MiB
Duration : 9mn 52s
Overall bit rate : 585 Kbps
Tagging application : Yet Another Metadata Injector for FLV - Version 1.8
Video
Format : AVC
Format/Info : Advanced Video Codec
Format profile : [email protected]
Format settings, CABAC : Yes
Format settings, ReFrames : 4 frames
Codec ID : 7
Duration : 9mn 52s
Bit rate : 468 Kbps
Width : 480 pixels
Height : 360 pixels
Display aspect ratio : 4:3
Frame rate mode : Constant
Frame rate : 30.000 fps
Color space : YUV
Chroma subsampling : 4:2:0
Bit depth : 8 bits
Scan type : Progressive
Bits/(Pixel*Frame) : 0.090
Stream size : 34.0 MiB (82%)
Writing library : x264 core 116 r2044 392e762
Encoding settings : cabac=1 / ref=2 / deblock=1:-1:-1 / analyse=0x1:0x111 / me=hex / subme=6 / psy=1 / psy_rd=1.00:0.15 / mixed_ref=1 / me_range=16 / chroma_me=1 / trellis=1 / 8x8dct=0 / cqm=0 / deadzone=21,11 / fast_pskip=1 / chroma_qp_offset=-3 / threads=36 / sliced_threads=0 / nr=0 / decimate=1 / interlaced=0 / bluray_compat=0 / constrained_intra=0 / bframes=3 / b_pyramid=2 / b_adapt=1 / b_bias=0 / direct=1 / weightb=1 / open_gop=0 / weightp=1 / keyint=250 / keyint_min=25 / scenecut=40 / intra_refresh=0 / rc_lookahead=30 / rc=crf / mbtree=1 / crf=22.0 / qcomp=0.60 / qpmin=0 / qpmax=69 / qpstep=4 / ip_ratio=1.40 / aq=1:1.00
Audio
Format : AAC
Format/Info : Advanced Audio Codec
Format profile : LC
Codec ID : 10
Duration : 9mn 52s
Bit rate : 94.4 Kbps
Channel(s) : 2 channels
Channel positions : Front: L R
Sampling rate : 44.1 KHz
Compression mode : Lossy
Delay relative to video : 67ms
Stream size : 7.09 MiB (17%)


Последний раз редактировалось: Bayrin (2012-06-23 13:21), всего редактировалось 17 раз(а)

Создавать темы 11-Июн-2012 12:17

[Профиль]  [ЛС] 

Pendalf

Стаж: 6 лет 6 месяцев

Сообщений: 416

Симпатии: 34

Посмотрите, как оформлены другие релизы данного раздела. Оформите подобным образом

Создавать темы 11-Июн-2012 14:18

[Профиль]  [ЛС] 

Топик был перенесен из форума Единоборства в форум Тестовый форум

Pendalf

Создавать темы 11-Июн-2012 14:18

 

Bayrin ®

Стаж: 5 лет 9 месяцев

Сообщений: 7

Симпатии: 1

Посмотрите, как оформлены другие релизы данного раздела. Оформите подобным образом
Прошу прощения, не разобрался. Я скачал программу медиаинфо, открыл инфу по файлам (всего их тут 2): оказалось, они разного формата, качества и т.п. Вобщем, неоднородные. Можно ли оформить их в одной раздаче или необходимо создать 2 разные темы?
Спасибо за помощь!

Создавать темы 15-Июн-2012 10:19

[Профиль]  [ЛС] 

Bayrin ®

Стаж: 5 лет 9 месяцев

Сообщений: 7

Симпатии: 1

ОК, создам по одной.

Создавать темы 19-Июн-2012 11:14

[Профиль]  [ЛС] 

Топик был перенесен из форума Тестовый форум в форум Единоборства

Bayrin

Создавать темы 23-Июн-2012 13:15

 

ORTIK

Стаж: 5 лет 2 месяца

Сообщений: 1

Ребятя встаньте на раздачу

Создавать темы 12-Окт-2012 18:56

[Профиль]  [ЛС] 
Показать сообщения:    
Ответить на тему

Текущее время: 15-Дек 21:07

Часовой пояс: UTC + 5



Вы не можете начинать темы
Вы не можете отвечать на сообщения
Вы не можете редактировать свои сообщения
Вы не можете удалять свои сообщения
Вы не можете голосовать в опросах
Вы не можете прикреплять файлы к сообщениям
Вы не можете скачивать файлы