WWE Friday Night Smackdown 2012/06/08 [2012 г., Рестлинг, HDTV]

Страницы :  1, 2  След.

Ответить на тему
 

Спартанец ®

Стаж: 5 лет 10 месяцев

Сообщений: 361

WWE Friday Night Smackdown 2012/06/08
Год выпуска: 2012
Вид спорта: Рестлинг
Участники: Звезды WWE
Продолжительность: 01.27.15
Комментарий: профессиональный (многоголосый, закадровый)
Язык комментариев: Русский
Описание: Еженедельный выпуск пятничного Smackdown. Выпуск от 08-го июня 2012 года
Качество: HDTV
Формат: Mр4
Видео кодек: x264/AVC
Аудио кодек: MPEG Audio Layer 3
Видео: MPEG4, Video, (H264), 704x400, 25fps, 1 500 Kbps
Аудио: MPEG Audio Layer 3, 44100Hz, stereo, 192 Kbps

Скриншоты

Кард

Альберто Дель Рио - Великий Кали
Бродус Клей - Дэррик Бейтман
Син Кара - Дрю Маккинтайр
Райбек - Джоб-отряд
Шеймус - Кейн

MediaInfo

General
Format : MPEG-4
Format profile : Base Media
Codec ID : isom
File size : 1.00 GiB
Duration : 1h 27mn
Overall bit rate mode : Constant
Overall bit rate : 1 644 Kbps
Encoded date : UTC 2012-06-08 13:38:43
Tagged date : UTC 2012-06-08 13:38:43
Writing application : Yamb 2.1.0.0 [http://yamb.unite-video.com]
Video
ID : 2
Format : AVC
Format/Info : Advanced Video Codec
Format profile : [email protected]
Format settings, CABAC : Yes
Format settings, ReFrames : 3 frames
Codec ID : avc1
Codec ID/Info : Advanced Video Coding
Duration : 1h 27mn
Bit rate mode : Constant
Bit rate : 1 500 Kbps / 1 500 Kbps
Maximum bit rate : 2 727 Kbps
Width : 704 pixels
Height : 400 pixels
Display aspect ratio : 16:9
Frame rate mode : Constant
Frame rate : 25.000 fps
Standard : NTSC
Color space : YUV
Chroma subsampling : 4:2:0
Bit depth : 8 bits
Scan type : Progressive
Bits/(Pixel*Frame) : 0.213
Stream size : 904 MiB (88%)
Writing library : x264 core 114
Encoding settings : cabac=1 / ref=3 / deblock=1:0:0 / analyse=0x3:0x113 / me=hex / subme=7 / psy=1 / psy_rd=1.00:0.00 / mixed_ref=1 / me_range=16 / chroma_me=1 / trellis=1 / 8x8dct=1 / cqm=2 / deadzone=21,11 / fast_pskip=1 / chroma_qp_offset=-2 / threads=6 / sliced_threads=0 / slices=1 / nr=0 / decimate=1 / interlaced=0 / constrained_intra=0 / bframes=3 / b_pyramid=0 / b_adapt=1 / b_bias=0 / direct=1 / weightb=1 / open_gop=0 / weightp=2 / keyint=250 / keyint_min=25 / scenecut=40 / intra_refresh=0 / rc_lookahead=40 / rc=cbr / mbtree=1 / bitrate=1500 / ratetol=1.0 / qcomp=0.60 / qpmin=3 / qpmax=69 / qpstep=4 / vbv_maxrate=1500 / vbv_bufsize=1490 / nal_hrd=cbr / ip_ratio=1.40 / aq=1:1.00
Tagged date : UTC 2012-06-08 13:40:10
Color primaries : BT.470-6 System B, BT.470-6 System G, BT.601-6 625, BT.1358 625, BT.1700 625 PAL, BT.1700 625 SECAM
Transfer characteristics : BT.470-6 System B, BT.470-6 System G
Matrix coefficients : BT.470-6 System B, BT.470-6 System G, BT.601-6 625, BT.1358 625, BT.1700 625 PAL, BT.1700 625 SECAM, IEC 61966-2-4 601
Audio
ID : 3
Format : MPEG Audio
Format version : Version 1
Format profile : Layer 3
Codec ID : 6B
Duration : 1h 27mn
Duration_FirstFrame : -17ms
Bit rate mode : Constant
Bit rate : 192 Kbps
Maximum bit rate : 199 Kbps
Channel(s) : 2 channels
Sampling rate : 44.1 KHz
Compression mode : Lossy
Stream size : 120 MiB (12%)
Encoded date : UTC 2012-06-08 13:40:04
Tagged date : UTC 2012-06-08 13:40:10

Создавать темы 12-Июн-2012 17:43

[Профиль]  [ЛС] 

nikita

Стаж: 7 лет 2 месяца

Сообщений: 82

Симпатии: 4

скорость подкинь не много больше .

Создавать темы 12-Июн-2012 23:07

[Профиль]  [ЛС] 

NodirAgenT

Стаж: 6 лет 8 месяцев

Сообщений: 204

Альберто Дел Рио из-за травмы был заменен Дольфом Зиглером в бою за титул Чемпиона в тяжелом весе.
Винс МакМэхон объявил , что в случае поражения Биг Шоу - Генеральный Менеджер Джон Лауринайтис будет уволен. Позже ГМ Лауринайтис поставил условие, что если он сохранит свой пост, то Джон Сина будет уволен.

Одиночный поединок в стальной клетке. Если Шоу проиграет, Лауринайтис уволен Если Сина проиграет, Лауринайтис сохраняет должность и увольняет Сину.

Поединок "Тройная Угроза" за титул Чемпиона WWE

Одиночный поединок за титул Интерконтинентального чемпиона

Одиночный поединок за титул Чемпиона Мира в тяжелом весе

Одиночный поединок за титул Чемпионки Див

Одиночный поединок в смокингах. Побеждает тот, кто первый разденет соперника

Одиночный поединок

_________________
Подпись отключена за нарушение правил форума


Последний раз редактировалось: NodirAgenT (2012-06-16 10:51), всего редактировалось 1 раз

Создавать темы 13-Июн-2012 10:09

[Профиль]  [ЛС] 

NodirAgenT

Стаж: 6 лет 8 месяцев

Сообщений: 204

Поправка С Шеймусом ( Изменили Соперника) И Новый Контракт На бой Сины И Шоу ( Лоринайтс Сак)
Еси В субоотту Посмарю ( по 2х2 Может Добавят сантину Мареллу И еще 1 Бой )

_________________
Подпись отключена за нарушение правил форума

Создавать темы 13-Июн-2012 10:12

[Профиль]  [ЛС] 

Emil_Safa

Стаж: 5 лет 6 месяцев

Сообщений: 102

Почему опять Альберту Дель Рио не дают шанса выйграть титул?

Создавать темы 13-Июн-2012 11:38

[Профиль]  [ЛС] 

LiX

Стаж: 6 лет 6 месяцев

Сообщений: 254

Симпатии: 6

Emil_Safa, да мне тоже интересно

Создавать темы 13-Июн-2012 11:54

[Профиль]  [ЛС] 

NodirAgenT

Стаж: 6 лет 8 месяцев

Сообщений: 204

Но А главное Будет Ли новый Ген Директор Я За Теддддддддддиииии

_________________
Подпись отключена за нарушение правил форума

Создавать темы 13-Июн-2012 12:23

[Профиль]  [ЛС] 

LiX

Стаж: 6 лет 6 месяцев

Сообщений: 254

Симпатии: 6

Я тоже за Тедии

Создавать темы 13-Июн-2012 13:01

[Профиль]  [ЛС] 

RokC

Стаж: 5 лет 11 месяцев

Сообщений: 56

Но единственный минус тедди он не очень оригинален и в принципе предсказуем но я всё равно за тедди

Создавать темы 13-Июн-2012 13:35

[Профиль]  [ЛС] 

The Game

Стаж: 5 лет 9 месяцев

Сообщений: 80

Симпатии: 1

Я тоже ТедддддддИИИИИИИИИИИ

Создавать темы 13-Июн-2012 15:04

[Профиль]  [ЛС] 

Emil_Safa

Стаж: 5 лет 6 месяцев

Сообщений: 102

Когда вернется Рей Мистерио?)

Создавать темы 13-Июн-2012 21:41

[Профиль]  [ЛС] 

NodirAgenT

Стаж: 6 лет 8 месяцев

Сообщений: 204

Ребята Большая Просьба помогите Скачать Беклешь и Реслманию 27 Большое Спс За понимание

_________________
Подпись отключена за нарушение правил форума

Создавать темы 14-Июн-2012 19:46

[Профиль]  [ЛС] 

LiX

Стаж: 6 лет 6 месяцев

Сообщений: 254

Симпатии: 6

Ребята Большая Просьба помогите Скачать Беклешь и Реслманию 27 Большое Спс За понимание
Я раздаю Беклешь всё время

Создавать темы 14-Июн-2012 20:57

[Профиль]  [ЛС] 

rey mysterio

Стаж: 5 лет 11 месяцев

Сообщений: 164

Когда вернется Рей Мистерио?)
Скоро в конце Июня или где то в середине Июля

Создавать темы 16-Июн-2012 09:49

[Профиль]  [ЛС] 

NodirAgenT

Стаж: 6 лет 8 месяцев

Сообщений: 204

БУЯГА БУЯГА СМАРИТЕ ВЫШЕ КАКИЕ ИЗМЕНЕНИЯ ВНЕСЛИ В No way Out

_________________
Подпись отключена за нарушение правил форума

Создавать темы 16-Июн-2012 10:38

[Профиль]  [ЛС] 
Показать сообщения:    
Ответить на тему

Текущее время: 19-Дек 03:25

Часовой пояс: UTC + 5



Вы не можете начинать темы
Вы не можете отвечать на сообщения
Вы не можете редактировать свои сообщения
Вы не можете удалять свои сообщения
Вы не можете голосовать в опросах
Вы не можете прикреплять файлы к сообщениям
Вы не можете скачивать файлы