Сфера колдовства / La clé des champs (Клод Нуридзани /Claude Nuridsany/, Мари Перену /Marie Pérennou) [2011 г., документальный, фэнтези, семейный, DVDRip]

Ответить на тему
 

Suxrob89 ®

Стаж: 7 лет 3 месяца

Сообщений: 933

Симпатии: 564

Сфера колдовства / La clé des champs
Год выпуска: 2011
Страна: Франция
Жанр: документальный, фэнтези, семейный
Продолжительность: 01:18:48
Перевод: Профессиональный (одноголосый закадровый)
Режиссер: Клод Нуридзани /Claude Nuridsany/, Мари Перену /Marie Pérennou/
В ролях: Симон Делане /Simon Delagnes/, Линдси Енок /Lindsey Hénocque/, Жан-Клод Айриньяк /Jean-Claude Ayrinhac/, Дени Подалидес /Denis Podalydès/
Описание: Заброшенный пруд. Два одиноких ребенка попадают под очарование этого дикого места, которое постепенно сблизит их и даст им силу идти по жизни. Пруд в их глазах и в их воображении становится волшебным королевством, наполненным созданиями, рожденными в их мечтах и кошмарах.
 

MediaInfo

General
Complete name : Q:torrentDVDReleaseLa cle des champs. DVDRip.avi
Format : AVI
Format/Info : Audio Video Interleave
File size : 748 MiB
Duration : 1h 18mn
Overall bit rate : 1 326 Kbps
Writing application : VirtualDubMod 1.5.10.3 | www.virtualdub-fr.org || (build 2550/release)
Writing library : VirtualDubMod build 2550/release
Video
ID : 0
Format : MPEG-4 Visual
Format profile : Advanced [email protected]
Format settings, BVOP : 1
Format settings, QPel : No
Format settings, GMC : No warppoints
Format settings, Matrix : Default (MPEG)
Codec ID : XVID
Codec ID/Hint : XviD
Duration : 1h 18mn
Bit rate : 1 189 Kbps
Width : 688 pixels
Height : 368 pixels
Display aspect ratio : 1.870
Frame rate : 25.000 fps
Color space : YUV
Chroma subsampling : 4:2:0
Bit depth : 8 bits
Scan type : Progressive
Compression mode : Lossy
Bits/(Pixel*Frame) : 0.188
Stream size : 670 MiB (90%)
Writing library : XviD 1.2.1 (UTC 2008-12-04)
Audio
ID : 1
Format : MPEG Audio
Format version : Version 1
Format profile : Layer 3
Codec ID : 55
Codec ID/Hint : MP3
Duration : 1h 18mn
Bit rate mode : Constant
Bit rate : 128 Kbps
Channel(s) : 2 channels
Sampling rate : 48.0 KHz
Compression mode : Lossy
Stream size : 72.2 MiB (10%)
Alignment : Aligned on interleaves
Interleave, duration : 40 ms (1.00 video frame)
Interleave, preload duration : 504 ms
Writing library : LAME3.98r
Encoding settings : -m s -V 4 -q 2 -lowpass 17 -b 128
Качество: DVDRip
Формат: AVI
Видео кодек: XviD
Аудио кодек: MP3
Видео: XviD, 688x368 (1.87), 1189 Kbps, 25 fps
Аудио: MP3 2.0, 48 KHz, 128 Kbps

Скриншоты




Создавать темы 15-Июн-2012 14:02

[Профиль]  [ЛС] 

Whitejin

Стаж: 6 лет 7 месяцев

Сообщений: 175

Симпатии: 11

Кто посмотрел? Понравился вам фильм, напишите в ЛС

Создавать темы 25-Авг-2012 18:01

[Профиль]  [ЛС] 
Показать сообщения:    
Ответить на тему

Текущее время: 23-Ноя 16:21

Часовой пояс: UTC + 5



Вы не можете начинать темы
Вы не можете отвечать на сообщения
Вы не можете редактировать свои сообщения
Вы не можете удалять свои сообщения
Вы не можете голосовать в опросах
Вы не можете прикреплять файлы к сообщениям
Вы не можете скачивать файлы