WWE Monday Night Raw 2012/06/11 [2012 г., Рестлинг, HDTV]

Страницы :  1, 2  След.

Ответить на тему
 

Спартанец ®

Стаж: 5 лет 9 месяцев

Сообщений: 361

WWE Monday Night Raw 2012/06/11- Год выпуска: 2012
Вид спорта: Рестлинг
Участники: Звезды WWE
Продолжительность: 02.19.20
Комментарий: профессиональный (многоголосый, закадровый)
Язык комментариев: Русский
Описание: Еженедельный выпуск RAW. Выпуск от 11-го июня 2012 года
Качество: HDTV
Формат: Mр4
Видео кодек: x264 \ AVC
Аудио кодек: AAC
Видео: MPEG4, Video, (H264), 704x400, 29.97fps, 1 442 Kbps
Аудио: AAC, 48000Hz, stereo, 1536kbps, 165 Kbps

MediaInfo

General
Format : MPEG-4
Format profile : Base Media
Codec ID : isom
File size : 1.57 GiB
Duration : 2h 19mn
Overall bit rate mode : Variable
Overall bit rate : 1 612 Kbps
Encoded date : UTC 2012-06-11 18:32:23
Tagged date : UTC 2012-06-11 18:32:23
Writing application : Yamb 2.1.0.0 [http://yamb.unite-video.com]
Video
ID : 1
Format : AVC
Format/Info : Advanced Video Codec
Format profile : [email protected]
Format settings, CABAC : Yes
Format settings, ReFrames : 4 frames
Codec ID : avc1
Codec ID/Info : Advanced Video Coding
Duration : 2h 19mn
Bit rate : 1 442 Kbps
Maximum bit rate : 2 618 Kbps
Width : 704 pixels
Height : 400 pixels
Display aspect ratio : 16:9
Frame rate mode : Constant
Frame rate : 29.970 fps
Color space : YUV
Chroma subsampling : 4:2:0
Bit depth : 8 bits
Scan type : Progressive
Bits/(Pixel*Frame) : 0.171
Stream size : 1.40 GiB (89%)
Writing library : x264 core 125 r2200 999b753
Encoding settings : cabac=1 / ref=5 / deblock=1:0:0 / analyse=0x3:0x113 / me=umh / subme=9 / psy=1 / psy_rd=1.00:0.00 / mixed_ref=1 / me_range=16 / chroma_me=1 / trellis=1 / 8x8dct=1 / cqm=0 / deadzone=21,11 / fast_pskip=1 / chroma_qp_offset=-2 / threads=12 / lookahead_threads=2 / sliced_threads=0 / nr=0 / decimate=1 / interlaced=0 / bluray_compat=0 / constrained_intra=0 / bframes=3 / b_pyramid=1 / b_adapt=2 / b_bias=0 / direct=3 / weightb=1 / open_gop=0 / weightp=2 / keyint=300 / keyint_min=30 / scenecut=40 / intra_refresh=0 / rc_lookahead=40 / rc=crf / mbtree=1 / crf=19.0 / qcomp=0.60 / qpmin=0 / qpmax=69 / qpstep=4 / vbv_maxrate=1500 / vbv_bufsize=1450 / crf_max=0.0 / nal_hrd=none / ip_ratio=1.40 / aq=1:1.00
Encoded date : UTC 2011-09-08 11:43:25
Tagged date : UTC 2012-06-11 18:34:18
Audio
ID : 2
Format : AAC
Format/Info : Advanced Audio Codec
Format profile : LC
Codec ID : 40
Duration : 2h 19mn
Bit rate mode : Variable
Bit rate : 165 Kbps
Maximum bit rate : 204 Kbps
Channel(s) : 2 channels
Channel positions : Front: L R
Sampling rate : 48.0 KHz
Compression mode : Lossy
Stream size : 165 MiB (10%)
Encoded date : UTC 2012-06-11 18:33:54
Tagged date : UTC 2012-06-11 18:34:18

Kaрд

?

Скриншоты



Последний раз редактировалось: Спартанец (2012-06-17 10:55), всего редактировалось 1 раз

Создавать темы 17-Июн-2012 10:06

[Профиль]  [ЛС] 

Akmal&Getto

Стаж: 5 лет 5 месяцев

Сообщений: 79

Gazuuuuuuuuuuuuuuuuuuuuuuuuuuuuuuuuuuuuuuuuuuuuuuy

Создавать темы 17-Июн-2012 10:16

[Профиль]  [ЛС] 

Emil_Safa

Стаж: 5 лет 5 месяцев

Сообщений: 102

Вот этот выпуск ждали.
Наверно бои будет назначать сам МакМехон?)

Создавать темы 17-Июн-2012 10:18

[Профиль]  [ЛС] 

Спартанец ®

Стаж: 5 лет 9 месяцев

Сообщений: 361

Нет, будет назначать "Малыш Джонни". И если все что он назначит не вечер шоу, не понравится МакМехону - он будет уволен ))

Создавать темы 17-Июн-2012 10:57

[Профиль]  [ЛС] 

RokC

Стаж: 5 лет 10 месяцев

Сообщений: 56

А этот выпуск с переводом или без

Создавать темы 17-Июн-2012 11:21

[Профиль]  [ЛС] 

Emil_Safa

Стаж: 5 лет 5 месяцев

Сообщений: 102

А этот выпуск с переводом или без
Язык комментариев: Русский

Создавать темы 17-Июн-2012 11:29

[Профиль]  [ЛС] 

Спартанец ®

Стаж: 5 лет 9 месяцев

Сообщений: 361

Я стараюсь качать всё - на русском языке. Что бы ребята понимали то, что происходит на ринге.

Создавать темы 17-Июн-2012 11:44

[Профиль]  [ЛС] 

NodirAgenT

Стаж: 6 лет 7 месяцев

Сообщений: 204

Лады ПРосто Для Поправки На Но вей Ауте ( результаты Я не говорю )
Sin Cara _ Hunico
Rybak In action
Четыресторонний Фатальнный Матч ( между Нубасами) за Дальнейшее выступления За титулы даби даби
Но я Не Удержусь И скаЖУ ЛОРИНАЙТС ТЫ УВОЛЕННННННННННННННННН

_________________
Подпись отключена за нарушение правил форума

Создавать темы 17-Июн-2012 23:16

[Профиль]  [ЛС] 

Emil_Safa

Стаж: 5 лет 5 месяцев

Сообщений: 102

Как помню вчера смарел
Шеймус - Тенсай
( Тедди Предложил Назначить 4 сторонний Бой Кароч Кто Победит Тот и файтится с Шеймусом На но Вей аут)
ГрИТ Кали Зиглер Свеггер Криштиан
Шеймус - Дольф Зиглер
См Панк & Ей Джей ПРотив Каина И Д Брайана ( Ей дЖей накаутировала Каина)
Хз Боше не помню Но было Интересно ( накаутировали Мс Маккона Кажись
Уф спасибо можно не качать,предлагаю запретить коментарии пока все не скачают и не посмотрят!

Создавать темы 17-Июн-2012 23:28

[Профиль]  [ЛС] 

Pendalf

Стаж: 6 лет 5 месяцев

Сообщений: 416

Симпатии: 34

NodirAgenT, надо под спойлер подобные комментарии прятать))

Создавать темы 18-Июн-2012 02:00

[Профиль]  [ЛС] 

RokC

Стаж: 5 лет 10 месяцев

Сообщений: 56

У меня предложения давайте щас выложем предсказания на ноу вэй аут
Шеймус победит Зиглера
Сина победит Биг Шоу
Кайн победит панка и брайана( Но я за панка)))
Криштиан победит Коди Роудса

Создавать темы 18-Июн-2012 14:55

[Профиль]  [ЛС] 

Emil_Safa

Стаж: 5 лет 5 месяцев

Сообщений: 102

У меня предложения давайте щас выложем предсказания на ноу вэй аут
Шеймус победит Зиглера
Сина победит Биг Шоу
Кайн победит панка и брайана( Но я за панка)))
Криштиан победит Коди Роудса
Я испугался что ты написал кто в реале выйграл)
Ну я тоже так думаю как ты,но я думаю Коди Роудс победит Кристиана
Сантинна победит Рикардо Родригиза

Создавать темы 18-Июн-2012 15:27

[Профиль]  [ЛС] 

Kroys

Стаж: 6 лет 1 месяц

Сообщений: 187

Симпатии: 1

э да нафига это надо свои предложения , лучше дождатся и посмотреть !!! спартанец ждём Но вэй аут:)

Создавать темы 19-Июн-2012 11:41

[Профиль]  [ЛС] 

tas ix

Стаж: 5 лет 9 месяцев

Сообщений: 105

Симпатии: 24

я за Шеймуса

Создавать темы 19-Июн-2012 12:58

[Профиль]  [ЛС] 

tas ix

Стаж: 5 лет 9 месяцев

Сообщений: 105

Симпатии: 24

У меня предложения давайте щас выложем предсказания на ноу вэй аут
Шеймус победит Зиглера
Сина победит Биг Шоу
Кайн победит панка и брайана( Но я за панка)))
Криштиан победит Коди Роудса
Я испугался что ты написал кто в реале выйграл)
Ну я тоже так думаю как ты,но я думаю Коди Роудс победит Кристиана
Сантинна победит Рикардо Родригиза
Коди роудс победит иначе в чем суть

Создавать темы 19-Июн-2012 13:03

[Профиль]  [ЛС] 
Показать сообщения:    
Ответить на тему

Текущее время: 23-Ноя 19:50

Часовой пояс: UTC + 5



Вы не можете начинать темы
Вы не можете отвечать на сообщения
Вы не можете редактировать свои сообщения
Вы не можете удалять свои сообщения
Вы не можете голосовать в опросах
Вы не можете прикреплять файлы к сообщениям
Вы не можете скачивать файлы