WWE Friday Night Smackdown 2012/06/15 [2012 г., Рестлинг, HDTV]

Ответить на тему
 

Спартанец ®

Стаж: 5 лет 7 месяцев

Сообщений: 361

WWE Friday Night Smackdown 2012/06/15
Год выпуска: 2012
Вид спорта: Рестлинг
Участники: Звезды WWE
Продолжительность: 01.22.06
Комментарий: профессиональный (многоголосый, закадровый)
Язык комментариев: Русский
Описание: Еженедельный выпуск пятничного Smackdown. Выпуск от 15-го июня 2012 года
Качество: HDTV
Формат: Mр4
Видео кодек: x264/AVC
Аудио кодек: AAC
Видео: MPEG4, Video, (H264), 704x400, 29.97fps, 1 412 Kbps
Аудио: AAC, 48000Hz, stereo, 1536kbps, 165 Kbps

Скриншоты

Кард

CM Punk & Sheamus vs. Dolph Ziggler & Daniel Bryan
Christian vs. Jack Swagger
Beth Phoenix vs. Alicia Fox
Brodus Clay vs. Heath Slater
Damien Sandow vs. Tyson Kidd
Ryback in action

MediaInfo

General
Format : MPEG-4
Format profile : Base Media
Codec ID : isom
File size : 929 MiB
Duration : 1h 22mn
Overall bit rate mode : Variable
Overall bit rate : 1 582 Kbps
Encoded date : UTC 2012-06-15 12:38:23
Tagged date : UTC 2012-06-15 12:38:23
Writing application : Yamb 2.1.0.0 [http://yamb.unite-video.com]
Video
ID : 1
Format : AVC
Format/Info : Advanced Video Codec
Format profile : [email protected]
Format settings, CABAC : Yes
Format settings, ReFrames : 4 frames
Codec ID : avc1
Codec ID/Info : Advanced Video Coding
Duration : 1h 22mn
Bit rate : 1 412 Kbps
Maximum bit rate : 2 598 Kbps
Width : 704 pixels
Height : 400 pixels
Display aspect ratio : 16:9
Frame rate mode : Constant
Frame rate : 29.970 fps
Color space : YUV
Chroma subsampling : 4:2:0
Bit depth : 8 bits
Scan type : Progressive
Bits/(Pixel*Frame) : 0.167
Stream size : 829 MiB (89%)
Writing library : x264 core 122 r2184 5c85e0a
Encoding settings : cabac=1 / ref=5 / deblock=1:0:0 / analyse=0x3:0x113 / me=umh / subme=9 / psy=1 / psy_rd=1.00:0.00 / mixed_ref=1 / me_range=16 / chroma_me=1 / trellis=1 / 8x8dct=1 / cqm=0 / deadzone=21,11 / fast_pskip=1 / chroma_qp_offset=-2 / threads=12 / sliced_threads=0 / nr=0 / decimate=1 / interlaced=0 / bluray_compat=0 / constrained_intra=0 / bframes=3 / b_pyramid=1 / b_adapt=2 / b_bias=0 / direct=3 / weightb=1 / open_gop=0 / weightp=2 / keyint=300 / keyint_min=30 / scenecut=40 / intra_refresh=0 / rc_lookahead=40 / rc=crf / mbtree=1 / crf=19.0 / qcomp=0.60 / qpmin=0 / qpmax=69 / qpstep=4 / vbv_maxrate=1500 / vbv_bufsize=1450 / crf_max=0.0 / nal_hrd=none / ip_ratio=1.40 / aq=1:1.00
Encoded date : UTC 2011-09-08 11:43:25
Tagged date : UTC 2012-06-15 12:39:45
Audio
ID : 2
Format : AAC
Format/Info : Advanced Audio Codec
Format profile : LC
Codec ID : 40
Duration : 1h 22mn
Bit rate mode : Variable
Bit rate : 165 Kbps
Maximum bit rate : 214 Kbps
Channel(s) : 2 channels
Channel positions : Front: L R
Sampling rate : 48.0 KHz
Compression mode : Lossy
Stream size : 97.1 MiB (10%)
Encoded date : UTC 2012-06-15 12:39:27
Tagged date : UTC 2012-06-15 12:39:45

Создавать темы 17-Июн-2012 10:53

[Профиль]  [ЛС] 

rey mysterio

Стаж: 5 лет 8 месяцев

Сообщений: 164

Спс))+1

Создавать темы 17-Июн-2012 20:41

[Профиль]  [ЛС] 

rey mysterio

Стаж: 5 лет 8 месяцев

Сообщений: 164

Ждём No Way Out

Создавать темы 17-Июн-2012 20:48

[Профиль]  [ЛС] 

Спартанец ®

Стаж: 5 лет 7 месяцев

Сообщений: 361

Будет, Рэй )

Создавать темы 17-Июн-2012 22:27

[Профиль]  [ЛС] 

Akmal&Getto

Стаж: 5 лет 3 месяца

Сообщений: 79

Газууууууууууууууууууууууууй

Создавать темы 17-Июн-2012 23:05

[Профиль]  [ЛС] 

NodirAgenT

Стаж: 6 лет 5 месяцев

Сообщений: 204

Ребят Раздавайте Беклеш помогите скачать

_________________
Подпись отключена за нарушение правил форума

Создавать темы 17-Июн-2012 23:12

[Профиль]  [ЛС] 

The Game

Стаж: 5 лет 6 месяцев

Сообщений: 80

Симпатии: 1

Спартанец, Что с No Way Out

Создавать темы 19-Июн-2012 14:56

[Профиль]  [ЛС] 

Kroys

Стаж: 5 лет 11 месяцев

Сообщений: 187

Симпатии: 1

дораздайте мне 11 число , я почти скачал там 80 % у меня )) и стоит :( потом это скачаю :)

Создавать темы 19-Июн-2012 15:38

[Профиль]  [ЛС] 

Akmal&Getto

Стаж: 5 лет 3 месяца

Сообщений: 79

Ребят помогите скачать

Создавать темы 19-Июн-2012 16:48

[Профиль]  [ЛС] 

Akmal&Getto

Стаж: 5 лет 3 месяца

Сообщений: 79

Ребят Раздавайте помогите скачать

Создавать темы 19-Июн-2012 16:49

[Профиль]  [ЛС] 

Спартанец ®

Стаж: 5 лет 7 месяцев

Сообщений: 361

Спартанец, Что с No Way Out
Качаю. Завтра - послезавтра будет

Создавать темы 19-Июн-2012 17:37

[Профиль]  [ЛС] 

Kroys

Стаж: 5 лет 11 месяцев

Сообщений: 187

Симпатии: 1

стоит качать ? мало места просто no way out жду) если стоит отпишитесь

Создавать темы 20-Июн-2012 00:34

[Профиль]  [ЛС] 

NodirAgenT

Стаж: 6 лет 5 месяцев

Сообщений: 204

Спартанец Отпиши В Личку Где тебя найти Где встретится или номер ( чтобы Забрать даби даби )

_________________
Подпись отключена за нарушение правил форума

Создавать темы 20-Июн-2012 10:13

[Профиль]  [ЛС] 

rey mysterio

Стаж: 5 лет 8 месяцев

Сообщений: 164

Биг шоу проиграл Сине и терь Лоуринайтес уволен

Создавать темы 20-Июн-2012 11:45

[Профиль]  [ЛС] 

Kroys

Стаж: 5 лет 11 месяцев

Сообщений: 187

Симпатии: 1

Люди кто знает , WWE SUPERSTARS там отдельные бои да? и всё такое ? я чё то понять не могу )) им что мало RAW и SMACKDOWN???? УжыССс

Создавать темы 22-Июн-2012 12:54

[Профиль]  [ЛС] 
Показать сообщения:    
Ответить на тему

Текущее время: 23-Сен 16:10

Часовой пояс: UTC + 5



Вы не можете начинать темы
Вы не можете отвечать на сообщения
Вы не можете редактировать свои сообщения
Вы не можете удалять свои сообщения
Вы не можете голосовать в опросах
Вы не можете прикреплять файлы к сообщениям
Вы не можете скачивать файлы