ЧУДЕСА КОРАНА - Научные и исторические феномены / MIRACLE of the KORAN - Scientific and history phenomenons (Аднан Октар) [2004 г., научный и исторический, DVDRip]

Ответить на тему
 

dons ®

Стаж: 7 лет 7 месяцев

Сообщений: 24

ЧУДЕСА КОРАНА - Научные и исторические феномены / MIRACLE of the KORAN - Scientific and history phenomenons
Год выпуска: 2004
Старана:Турция
Перевод:Профессиональный (одноголосый)Узбекское
Жанр: научный и исторический
Продолжительность: 1)00:47:32 2) 00:36:41
Режиссер: Аднан Октар
Описание: 14 веков тому назад Всевышний Господь ниспослал человечеству Коран - Писание, указывающее путь Истины. Господний призыв к познанию мира изменил весь ход развития истории человечества. Наука, культура, философия и искусство пережили невиданный доселе в истории всплеск развития, фундамент европейской цивилизации закладывался на достижениях Исламского мира.
Неповторимый художественный стиль и язык Корана и заключенная в нем Высшая мудрость, глубокие морально-нравственные заповеди, описание будущих событий, отсутствие и толики несоответствий в колоссальном тексте Писания, - все это являет собой неопровержимое свидетельство того, что эта Книга поистине есть Слово Всевышнего Господа.
Коран несет людям знания во всех областях науки, астрономии и физике, медицине, химии, биологии, истории, от сотворения Вселенной до сотворения человека, строения атмосферы до гармонии всех законов физики.
Множество феноменальных фактов о сути мироздания, ниспосланных в Коране, стали нашему познанию лишь в недавнем прошлом благодаря прогрессу науки в XX-XXI вв. и продолжают раскрываться по сей день.
И чем глубже наука изучает строение жизни, тем поразительнее раскрывается перед нами Высшая мудрость Корана, Божественный замысел строения каждой детали и закона Вселенной, совершенный смысл дарованной нам жизни...
Доп. информация: Род Харуна Яхьи (Аднана Октара) является сеййидами, его род восходит к внуку Пророка Мухаммада, сас, ал-Хусейну, мир ему. Предки Аднана Октара, Садретдин Ахмеда и его сына Терме переселились предположительно в Кумкент (ныне Чимкент) после разгрома Багдадского халифата монгольскими войсками династии Хулагу. Генеалогическое древо свидетельствует, что предки его переселялись вместе с ногайским ханством в сторону Хаджи-тархана (Астрахань), а позднее, с распадом ногайского ханства, ассимилировались с черкесским и адыгскими родами. Род Аднана Октара покинул территорию северного Кавказа с последней волной переселенцев, которые покинули эти земли в результате русско-кавказских войн, о чем также свидетельствуют списки переселенцев, датируемые 1894 годом, сохранившиеся Государственном Архиве Краснодарского края и архиве Министерства Иностранных дел Османской империи. Его прадед с семьей вместе с десятками адыгских и черкесских семей переселился на земли Османской империи в селение Бала, что недалеко от Анкары.
Качество: DVD5
Формат:DVD Video
Видео кодек: MPEG2
Аудио кодек: AC3
Видео:MPEG2 Video 720x576 (4:3) 25.00fps 2699 Kbps- 3555 Kbps
Аудио:Dolby AC3 48000Hz stereo 192kbps

Скриншоты




медиа инфо 1-серия

Format : MPEG-PS
File size : 1 024 MiB
Duration : 47mn 32s
Overall bit rate : 3 011 Kbps
Video
ID : 224 (0xE0)
Format : MPEG Video
Format version : Version 2
Format profile : [email protected]
Format settings, BVOP : Yes
Format settings, Matrix : Default
Duration : 47mn 32s
Bit rate mode : Variable
Bit rate : 2 699 Kbps
Nominal bit rate : 6 000 Kbps
Width : 720 pixels
Height : 576 pixels
Display aspect ratio : 4:3
Frame rate : 25.000 fps
Standard : PAL
Resolution : 8 bits
Colorimetry : 4:2:0
Scan type : Interlaced
Scan order : Bottom Field First
Bits/(Pixel*Frame) : 0.260
Stream size : 918 MiB (90%)
Audio
ID : 128 (0x80)
Format : AC-3
Format/Info : Audio Coding 3
Duration : 47mn 32s
Bit rate mode : Constant
Bit rate : 192 Kbps
Channel(s) : 2 channels
Channel positions : L R
Sampling rate : 48.0 KHz
Stream size : 65.3 MiB (6%)

медиа инфо 2-серия

Video
ID : 224 (0xE0)
Format : MPEG Video
Format version : Version 2
Format profile : [email protected]
Format settings, BVOP : Yes
Format settings, Matrix : Default
Duration : 36mn 41s
Bit rate mode : Variable
Bit rate : 3 555 Kbps
Nominal bit rate : 6 000 Kbps
Width : 720 pixels
Height : 576 pixels
Display aspect ratio : 4:3
Frame rate : 25.000 fps
Standard : PAL
Resolution : 8 bits
Colorimetry : 4:2:0
Scan type : Interlaced
Scan order : Bottom Field First
Bits/(Pixel*Frame) : 0.343
Stream size : 933 MiB (91%)
Audio
ID : 128 (0x80)
Format : AC-3
Format/Info : Audio Coding 3
Duration : 36mn 40s
Bit rate mode : Constant
Bit rate : 192 Kbps
Channel(s) : 2 channels
Channel positions : L R
Sampling rate : 48.0 KHz
Stream size : 50.4 MiB (5%)


Последний раз редактировалось: dons (2012-07-15 18:27), всего редактировалось 7 раз(а)

Создавать темы 17-Июн-2012 14:53

[Профиль]  [ЛС] 

victor0778

Стаж: 6 лет 10 месяцев

Сообщений: 1670

Симпатии: 142

Страна???, Перевод если нужно??? Качество: DVDRip???, битрейт видео???

Создавать темы 18-Июн-2012 08:48

[Профиль]  [ЛС] 

order

Стаж: 7 лет 5 месяцев

Сообщений: 50

это хороший филм
я видел его уже давно
саветую всем смотреть!!!!!!!!!!!!!!!!!!!!!!

Создавать темы 18-Июн-2012 09:09

[Профиль]  [ЛС] 

Kill_billuzb

Стаж: 5 лет 11 месяцев

Сообщений: 29

Симпатии: 1

Я скачал но качество 0
смотреть не возможно!

Создавать темы 18-Июн-2012 20:57

[Профиль]  [ЛС] 

Kill_billuzb

Стаж: 5 лет 11 месяцев

Сообщений: 29

Симпатии: 1

Стоп извеняюсь ошибичка вышло !

Создавать темы 18-Июн-2012 21:01

[Профиль]  [ЛС] 

Kill_billuzb

Стаж: 5 лет 11 месяцев

Сообщений: 29

Симпатии: 1

Стоп извеняюсь ошибычка вышло !

Создавать темы 18-Июн-2012 21:01

[Профиль]  [ЛС] 

victor0778

Стаж: 6 лет 10 месяцев

Сообщений: 1670

Симпатии: 142

Качество: DVD5
Формат: DVD Video
Видео кодек: MPEG2
Аудио кодек: AC3
Видео:MPEG2 Video 720x576 (4:3) 25.00fps 2699 Kbps- 3555 Kbps
  • это тех. данные вашего фильма
  • Создавать темы 20-Июн-2012 20:49

    [Профиль]  [ЛС] 

    DoktorUZ

    Стаж: 6 лет 10 месяцев

    Сообщений: 55

    dons, А где остолние...?

    Создавать темы 21-Июн-2012 19:00

    [Профиль]  [ЛС] 

    Азизи

    Стаж: 5 лет 7 месяцев

    Сообщений: 22

    Вот из чего мы сделанны.

    Создавать темы 22-Июн-2012 12:01

    [Профиль]  [ЛС] 

    dons ®

    Стаж: 7 лет 7 месяцев

    Сообщений: 24

    Качество: DVD5
    Формат: DVD Video
    Видео кодек: MPEG2
    Аудио кодек: AC3
    Видео:MPEG2 Video 720x576 (4:3) 25.00fps 2699 Kbps- 3555 Kbps
  • это тех. данные вашего фильма
  • спасибо большой я не знал как получит это информация

    Создавать темы 24-Июн-2012 18:14

    [Профиль]  [ЛС] 

    Desertboy

    Стаж: 8 лет

    Сообщений: 96

    Симпатии: 2

    спасибо большой я не знал как получит это информация
    Коран тебе в помощь !

    Создавать темы 24-Июн-2012 19:41

    [Профиль]  [ЛС] 

    feniksqip

    Стаж: 5 лет 7 месяцев

    Сообщений: 26

    Симпатии: 1

    на каком языке фильм ?страна то Турция

    Создавать темы 15-Июл-2012 18:05

    [Профиль]  [ЛС] 

    slaiderUZ

    Стаж: 5 лет 11 месяцев

    Сообщений: 172

    Симпатии: 6

    узбекский

    _________________
    Подпись отключена за нарушение правил форума

    Создавать темы 15-Июл-2012 19:34

    [Профиль]  [ЛС] 

    Алишер74

    Стаж: 4 года 10 месяцев

    Сообщений: 1

    Кто нибудь подскажет мне что означает раздача из ваших закачек у меня низкий уровень 0.75 я в этом новичок заранее спасибо

    Создавать темы 14-Мар-2013 02:04

    [Профиль]  [ЛС] 

    victor0778

    Стаж: 6 лет 10 месяцев

    Сообщений: 1670

    Симпатии: 142

    Алишер74, FAQ по рейтингу\статистике

    Создавать темы 14-Мар-2013 07:18

    [Профиль]  [ЛС] 
    Показать сообщения:    
    Ответить на тему

    Текущее время: 17-Дек 11:02

    Часовой пояс: UTC + 5



    Вы не можете начинать темы
    Вы не можете отвечать на сообщения
    Вы не можете редактировать свои сообщения
    Вы не можете удалять свои сообщения
    Вы не можете голосовать в опросах
    Вы не можете прикреплять файлы к сообщениям
    Вы не можете скачивать файлы