Школа волшебниц 4 сезона + Концерт + 2 полнометражки / WinX Club [2004, 2007, 2010 г., Анимационный, Приключения, Семейный, DVDRip]

Страницы :  1, 2  След.

Ответить на тему
 

ne0d1n ®

Стаж: 6 лет 10 месяцев

Сообщений: 64

Симпатии: 14

Школа волшебниц 4 сезона + Концерт + 2 полнометражки / WinX Club
Год: 2004, 2007, 2010
Страна: Италия
Режиссер: Иджиньо Страффи (Iginio Straffi)
Жанр: Анимационный, Приключения, Семейный
Продолжительность:
● 1) ~ 23 мин. каждая серия сезона
● 2) ~ 4 мин. каждый клип
● 3) 01:28:59 -Тайна затерянного королевства
● 4) 01:23:50 - Волшебное приключение
Перевод: Профессиональный (полное дублирование)-Описание:
● Сериал
Девушка по имени Блум обнаруживает, что отличается от остальных и наделена магическими способностями.Ее приглашаю в школу фей для того, что бы развить их. Блум быстро нашла общий язык с другими юными колдуньями, девчонки даже создали свой клуб Winx Club.
● Винкс Клуб: Тайна затерянного королевства. 2007
Издавна существует загадка королевства Домино. Попытаться разгадать ее — значит ступить на путь полный опасностей. Но Блум, которая вместе со своими друзьями ищет родителей, принимает вызов! Однако на пути стоит загадочный и ужасный «Круг обсидиана» — злой гений Мандрагора и три могущественные ведьмы! Чтобы победить их, придется не только рисковать жизнью, но и найти ответы на многие вопросы. А это требует чистоты помыслов, бескорыстия и верности дружбе. Все ли герои смогут пройти испытание загадкой Домино?
● Winx Club. Волшебное приключение. 2010
Размолвка прекрасной Блум и принца Ская накануне долгожданной свадьбы грозит обернуться большими неприятностями. Ведь за этим событием кроется страшная тайна, которая может навсегда уничтожить счастье влюбленных. А тут еще и коварные ведьмы готовы обрушить хрупкое магическое равновесие. Но дружба, отвага и настоящая любовь спасут этот прекрасный мир. Знаменитый клуб Винкс возвращается!
● Клуб Винкс - Школа волшебниц. КОНЦЕРТ. 2009
Это новое шоу с участием девушек из Винкс Клуб. Включает в себя DVD диск, который вышел в Италии 3 января 2009 г.! Поднимись на сцену вместе с Winx Rock Band и стань суперзвездой!- -Тех. данные для 1 и 2 сезонов:
Качество: DVDRip
Видео кодек: XviD
Аудио кодек: AC3, MP3
Видео: 640x480 (4:3), 25 fps, XviD build 41 ~900-1000 kbps avg, 0.12 bit/pixel
Аудио #1: 48 kHz, AC3 Dolby Digital, 2/0 (L,R) ch, ~128.00 kbps avg [RUS]
Аудио #2: 48 kHz, MPEG Layer 3, 1 ch, ~64.00 kbps avg [ENG]-Тех. данные для 3 сезона:
Качество: DVDRip
Видео кодек: XviD
Аудио кодек: AC3
Видео: 640x480 (4:3), 25 fps, XviD build 41 ~900-1000 kbps avg, 0.12 bit/pixel
Аудио: 48 kHz, AC3 Dolby Digital, 2/0 (L,R) ch, ~128.00 kbps avg [RUS]-Тех. данные для 4 сезона:
Качество: DVDRip
Видео кодек: XviD
Аудио кодек: MP3
Видео: 640x480 (4:3), 25 fps, XviD build 41 ~900-1000 kbps avg, 0.12 bit/pixel
Аудио: 48 kHz, MPEG Layer 3, 2/0 (L,R) ch, ~128.00 kbps avg [RUS]-Тех. данные для клипов:
Качество: DVDRip
Видео кодек: XviD
Аудио кодек: AC3
Видео: 720x416 (16:9), 25 fps, XviD build 41 ~3500 kbps avg
Аудио: 48 kHz, AC3 Dolby Digital, 2/0 (L,R) ch, ~192.00 kbps avg-Тех. данные для полнометражного фильма "Тайна затерянного королевства":
Качество: DVDRip
Видео кодек: XviD
Аудио кодек: AC3
Видео: 704x288 (2.4:1), 25 fps, XviD build 41 ~613 kbps avg
Аудио: 48 kHz, AC3 Dolby Digital, 3/2 (L,C,R,l,r) + LFE ch, ~448.00 kbps avg-Тех. данные для полнометражного фильма "Волшебное приключение":
Качество: DVDRip
Видео кодек: XviD
Аудио кодек: AC3
Видео: 704x304 (2.35:1), 25 fps, XviD build 41 ~1879 kbps avg
Аудио: 48 kHz, AC3 Dolby Digital, 3/2 (L,C,R,l,r) + LFE ch, ~448.00 kbps avg

MediaInfo

1 сезон

General
Complete name : E:\Movies\_Toons\WinX\Winx_s01\Winx s01e01 Неожиданное событие.avi
Format : AVI
Format/Info : Audio Video Interleave
File size : 183 MiB
Duration : 22mn 7s
Overall bit rate : 1 159 Kbps
Writing application : VirtualDubMod 1.5.10.1 (build 2439/release)
Writing library : VirtualDubMod build 2439/release
Video
ID : 0
Format : MPEG-4 Visual
Format profile : Advanced [email protected]
Format settings, BVOP : Yes
Format settings, QPel : No
Format settings, GMC : No warppoints
Format settings, Matrix : Custom
Codec ID : XVID
Codec ID/Hint : XviD
Duration : 22mn 7s
Bit rate : 953 Kbps
Width : 640 pixels
Height : 480 pixels
Display aspect ratio : 4:3
Frame rate : 25.000 fps
Resolution : 8 bits
Colorimetry : 4:2:0
Scan type : Progressive
Bits/(Pixel*Frame) : 0.124
Stream size : 151 MiB (82%)
Writing library : XviD 1.1.0 (UTC 2005-11-22)
Audio #1
ID : 1
Format : AC-3
Format/Info : Audio Coding 3
Codec ID : 2000
Duration : 22mn 7s
Bit rate mode : Constant
Bit rate : 128 Kbps
Channel(s) : 2 channels
Channel positions : Front: L R
Sampling rate : 48.0 KHz
Stream size : 20.3 MiB (11%)
Alignment : Aligned on interleaves
Interleave, duration : 40 ms (1.00 video frame)
Interleave, preload duration : 512 ms
Audio #2
ID : 2
Format : MPEG Audio
Format version : Version 1
Format profile : Layer 3
Codec ID : 55
Codec ID/Hint : MP3
Duration : 22mn 4s
Bit rate mode : Constant
Bit rate : 64.0 Kbps
Channel(s) : 1 channel
Sampling rate : 48.0 KHz
Stream size : 10.1 MiB (6%)
Alignment : Aligned on interleaves
Interleave, duration : 40 ms (1.00 video frame)
Interleave, preload duration : 504 ms
Writing library : LAME3.90.3

2 сезон

General
Complete name : E:\Movies\_Toons\WinX\Winx_s02\Winx s02e01.avi
Format : AVI
Format/Info : Audio Video Interleave
File size : 193 MiB
Duration : 22mn 47s
Overall bit rate : 1 186 Kbps
Writing application : VirtualDubMod 1.5.10.1 (build 2439/release)
Writing library : VirtualDubMod build 2439/release
Video
ID : 0
Format : MPEG-4 Visual
Format profile : Advanced [email protected]
Format settings, BVOP : Yes
Format settings, QPel : No
Format settings, GMC : No warppoints
Format settings, Matrix : Custom
Codec ID : XVID
Codec ID/Hint : XviD
Duration : 22mn 47s
Bit rate : 916 Kbps
Width : 640 pixels
Height : 480 pixels
Display aspect ratio : 4:3
Frame rate : 25.000 fps
Resolution : 8 bits
Colorimetry : 4:2:0
Scan type : Progressive
Bits/(Pixel*Frame) : 0.119
Stream size : 149 MiB (77%)
Writing library : XviD 1.1.0 (UTC 2005-11-22)
Audio #1
ID : 1
Format : AC-3
Format/Info : Audio Coding 3
Codec ID : 2000
Duration : 22mn 47s
Bit rate mode : Constant
Bit rate : 128 Kbps
Channel(s) : 2 channels
Channel positions : Front: L R
Sampling rate : 48.0 KHz
Stream size : 20.9 MiB (11%)
Alignment : Aligned on interleaves
Interleave, duration : 40 ms (1.00 video frame)
Interleave, preload duration : 512 ms
Audio #2
ID : 2
Format : MPEG Audio
Format version : Version 1
Format profile : Layer 3
Codec ID : 55
Codec ID/Hint : MP3
Duration : 22mn 47s
Bit rate mode : Constant
Bit rate : 128 Kbps
Channel(s) : 2 channels
Sampling rate : 48.0 KHz
Stream size : 20.9 MiB (11%)
Alignment : Aligned on interleaves
Interleave, duration : 40 ms (1.00 video frame)
Interleave, preload duration : 504 ms

3 сезон

General
Complete name : E:\Movies\_Toons\WinX\Winx_s03\Winx s03e01 Бал Принцессы.avi
Format : AVI
Format/Info : Audio Video Interleave
File size : 177 MiB
Duration : 23mn 51s
Overall bit rate : 1 034 Kbps
Writing application : VirtualDubMod 1.5.10.1 (build 2439/release)
Writing library : VirtualDubMod build 2439/release
Video
ID : 0
Format : MPEG-4 Visual
Format profile : Advanced [email protected]
Format settings, BVOP : Yes
Format settings, QPel : No
Format settings, GMC : No warppoints
Format settings, Matrix : Default (H.263)
Codec ID : XVID
Codec ID/Hint : XviD
Duration : 23mn 51s
Bit rate : 896 Kbps
Width : 640 pixels
Height : 480 pixels
Display aspect ratio : 4:3
Frame rate : 25.000 fps
Resolution : 8 bits
Colorimetry : 4:2:0
Scan type : Progressive
Bits/(Pixel*Frame) : 0.117
Stream size : 153 MiB (87%)
Writing library : XviD 1.1.2 (UTC 2006-11-01)
Audio
ID : 1
Format : AC-3
Format/Info : Audio Coding 3
Codec ID : 2000
Duration : 23mn 51s
Bit rate mode : Constant
Bit rate : 128 Kbps
Channel(s) : 2 channels
Channel positions : Front: L R
Sampling rate : 48.0 KHz
Stream size : 21.8 MiB (12%)
Alignment : Aligned on interleaves
Interleave, duration : 40 ms (1.00 video frame)
Interleave, preload duration : 512 ms

4 сезон

General
Complete name : E:\Movies\_Toons\WinX\Winx_s04\01 Охотники на фей.avi
Format : AVI
Format/Info : Audio Video Interleave
File size : 183 MiB
Duration : 22mn 20s
Overall bit rate : 1 145 Kbps
Writing application : VirtualDubMod 1.5.10.2 (build 2540/release)
Writing library : VirtualDubMod build 2540/release
Video
ID : 0
Format : MPEG-4 Visual
Format profile : Advanced [email protected]
Format settings, BVOP : Yes
Format settings, QPel : No
Format settings, GMC : No warppoints
Format settings, Matrix : Default (MPEG)
Codec ID : DX50
Codec ID/Hint : DivX 5
Duration : 22mn 20s
Bit rate : 1 010 Kbps
Width : 640 pixels
Height : 480 pixels
Display aspect ratio : 4:3
Frame rate : 25.000 fps
Resolution : 8 bits
Colorimetry : 4:2:0
Scan type : Progressive
Bits/(Pixel*Frame) : 0.132
Stream size : 161 MiB (88%)
Writing library : XviD 64
Audio
ID : 1
Format : MPEG Audio
Format version : Version 1
Format profile : Layer 3
Mode : Joint stereo
Format_Settings_ModeExtension : MS Stereo
Codec ID : 55
Codec ID/Hint : MP3
Duration : 22mn 20s
Bit rate mode : Variable
Bit rate : 122 Kbps
Nominal bit rate : 128 Kbps
Channel(s) : 2 channels
Sampling rate : 48.0 KHz
Stream size : 19.4 MiB (11%)
Alignment : Aligned on interleaves
Interleave, duration : 24 ms (0.60 video frame)
Interleave, preload duration : 530 ms
Writing library : LAME3.90.
Encoding settings : -m j -V 4 -q 2 -lowpass 17.6 --abr 128

Клипы

General
Complete name : E:\Movies\_Toons\WinX\Clips\01 - You Are The One.avi
Format : AVI
Format/Info : Audio Video Interleave
File size : 96.0 MiB
Duration : 3mn 42s
Overall bit rate : 3 625 Kbps
Writing application : VirtualDubMod 1.5.4.1 (build 2178/release)
Writing library : VirtualDubMod build 2178/release
Video
ID : 0
Format : MPEG-4 Visual
Format profile : Advanced [email protected]
Format settings, BVOP : Yes
Format settings, QPel : No
Format settings, GMC : No warppoints
Format settings, Matrix : Custom
Codec ID : XVID
Codec ID/Hint : XviD
Duration : 3mn 42s
Bit rate : 3 426 Kbps
Width : 720 pixels
Height : 416 pixels
Display aspect ratio : 16:9
Frame rate : 25.000 fps
Resolution : 8 bits
Colorimetry : 4:2:0
Scan type : Progressive
Bits/(Pixel*Frame) : 0.458
Stream size : 90.8 MiB (95%)
Writing library : XviD 1.2.1 (UTC 2008-12-04)
Audio
ID : 1
Format : AC-3
Format/Info : Audio Coding 3
Codec ID : 2000
Duration : 3mn 42s
Bit rate mode : Constant
Bit rate : 192 Kbps
Channel(s) : 2 channels
Channel positions : Front: L R
Sampling rate : 48.0 KHz
Stream size : 5.08 MiB (5%)
Alignment : Aligned on interleaves
Interleave, duration : 96 ms (2.40 video frames)
Interleave, preload duration : 96 ms
Language : English

Тайна затерянного королевства

General
Complete name : E:\Movies\_Toons\WinX\WinX Club - Секрет потерянного королевства.2007.avi
Format : AVI
Format/Info : Audio Video Interleave
File size : 698 MiB
Duration : 1h 31mn
Overall bit rate : 1 069 Kbps
Writing application : VirtualDubMod 1.5.10.2 (build 2542/release)
Writing library : VirtualDubMod build 2542/release
Video
ID : 0
Format : MPEG-4 Visual
Format profile : Advanced [email protected]
Format settings, BVOP : Yes
Format settings, QPel : No
Format settings, GMC : No warppoints
Format settings, Matrix : Default (H.263)
Muxing mode : Packed bitstream
Codec ID : XVID
Codec ID/Hint : XviD
Duration : 1h 31mn
Bit rate : 613 Kbps
Width : 704 pixels
Height : 288 pixels
Display aspect ratio : 2.40:1
Frame rate : 25.000 fps
Resolution : 8 bits
Colorimetry : 4:2:0
Scan type : Progressive
Bits/(Pixel*Frame) : 0.121
Stream size : 401 MiB (57%)
Writing library : XviD 1.1.2 (UTC 2006-11-01)
Audio
ID : 1
Format : AC-3
Format/Info : Audio Coding 3
Codec ID : 2000
Duration : 1h 31mn
Bit rate mode : Constant
Bit rate : 448 Kbps
Channel(s) : 6 channels
Channel positions : Front: L C R, Side: L R, LFE
Sampling rate : 48.0 KHz
Stream size : 293 MiB (42%)
Alignment : Split accross interleaves
Interleave, duration : 64 ms (1.60 video frames)
Interleave, preload duration : 500 ms

Волшебное приключение

General
Complete name : E:\Movies\_Toons\WinX\WinX Club - Volshebnoe.prikluchenie.2010.D.DVDRip.avi
Format : AVI
Format/Info : Audio Video Interleave
File size : 1.37 GiB
Duration : 1h 23mn
Overall bit rate : 2 337 Kbps
Writing application : VirtualDubMod 1.5.10.2 (build 2540/release)
Writing library : VirtualDubMod build 2540/release
Video
ID : 0
Format : MPEG-4 Visual
Format profile : Advanced [email protected]
Format settings, BVOP : Yes
Format settings, QPel : No
Format settings, GMC : No warppoints
Format settings, Matrix : Default (H.263)
Codec ID : XVID
Codec ID/Hint : XviD
Duration : 1h 23mn
Bit rate : 1 879 Kbps
Width : 704 pixels
Height : 304 pixels
Display aspect ratio : 2.35:1
Frame rate : 25.000 fps
Resolution : 8 bits
Colorimetry : 4:2:0
Scan type : Progressive
Bits/(Pixel*Frame) : 0.351
Stream size : 1.10 GiB (80%)
Writing library : XviD 1.2.1 (UTC 2008-12-04)
Audio
ID : 1
Format : AC-3
Format/Info : Audio Coding 3
Codec ID : 2000
Duration : 1h 23mn
Bit rate mode : Constant
Bit rate : 448 Kbps
Channel(s) : 6 channels
Channel positions : Front: L C R, Side: L R, LFE
Sampling rate : 48.0 KHz
Stream size : 269 MiB (19%)
Alignment : Split accross interleaves
Interleave, duration : 40 ms (1.00 video frame)
Interleave, preload duration : 500 ms

Скриншоты

1-4 Сезоны






Клипы



Тайна затерянного королевства



Волшебное приключение





Последний раз редактировалось: ne0d1n (2012-06-18 22:03), всего редактировалось 3 раз(а)

Создавать темы 17-Июн-2012 22:16

[Профиль]  [ЛС] 

Pendalf

Стаж: 6 лет 2 месяца

Сообщений: 416

Симпатии: 34

ne0d1n, добавьте строки Режиссер и Роли озвучивали. Выложите MediaInfo для обоих фильмов, одного клипа и для одной серии из каждого сезона - оформлю тех. данные за вас, а дальше уже будем смотреть, что делать со скриншотами. Итого у вас должно получиться 7 отчетов. Вышлите мне их в ЛС
Как сделать отчет MediaInfo, смотрите у меня в подписи (получаем информацию по видеофайлу)

Создавать темы 17-Июн-2012 22:46

[Профиль]  [ЛС] 

ne0d1n ®

Стаж: 6 лет 10 месяцев

Сообщений: 64

Симпатии: 14

MI добавил.
Выложил сериал по просьбе.
Не возражаю на статус темп.
Источники сериала:
1 - http://www.rutor.org/torrent/54929/shkola-volshebni...1-26-2004-dvdrip
2 - http://www.rutor.org/torrent/54999/shkola-volshebni...1-26-2004-dvdrip
3 - http://www.rutor.org/torrent/55139/shkola-volshebni...1-26-2004-dvdrip
4 - http://nnm-club.ru/forum/viewtopic.php?t=3131198 (топик уже похерили)
Остальное переписал у знакомого, не знаю откуда.

Создавать темы 17-Июн-2012 23:15

[Профиль]  [ЛС] 

Pendalf

Стаж: 6 лет 2 месяца

Сообщений: 416

Симпатии: 34

ne0d1n, подправил за вас. Вам осталось залить, как минимум, три скрина с любого клипа, и по три скрина с каждой из полнометражек, добавив их (скрины) под готовые спойлера

Создавать темы 18-Июн-2012 19:05

[Профиль]  [ЛС] 

ne0d1n ®

Стаж: 6 лет 10 месяцев

Сообщений: 64

Симпатии: 14

ne0d1n, подправил за вас. Вам осталось залить, как минимум, три скрина с любого клипа, и по три скрина с каждой из полнометражек, добавив их (скрины) под готовые спойлера
Пендальф, спасибо огромное!
Скрины добавил.
Может на модерирование игр подвяжетесь?
А то у меня не очень хорошие воспоминания, а тут такая шикарная помощь!
Супер!!!

Создавать темы 18-Июн-2012 22:06

[Профиль]  [ЛС] 

Pendalf

Стаж: 6 лет 2 месяца

Сообщений: 416

Симпатии: 34

ne0d1n, подправил за вас. Вам осталось залить, как минимум, три скрина с любого клипа, и по три скрина с каждой из полнометражек, добавив их (скрины) под готовые спойлера
Пендальф, спасибо огромное!
Скрины добавил.
Может на модерирование игр подвяжетесь?
А то у меня не очень хорошие воспоминания, а тут такая шикарная помощь!
Супер!!!
Да не за что) Всегда рад помочь, так что обращайтесь. С играми, думаю, ничего не получится, т.к. мне и в видео работы хватает)

Создавать темы 19-Июн-2012 02:42

[Профиль]  [ЛС] 

eldorado777

Стаж: 6 лет 9 месяцев

Сообщений: 118

Симпатии: 11

ne0d1n, можете скорость прибавить, а то за 4 дня всего 10% скаченого.

Создавать темы 21-Июн-2012 23:32

[Профиль]  [ЛС] 

eldorado777

Стаж: 6 лет 9 месяцев

Сообщений: 118

Симпатии: 11

Люди не режте скорость!!! AlenLegion вы уже скачали 28%, ну раздайте с нормальной скоростью, а то сейчас от вас максимум 5 Kbit/c

Создавать темы 23-Июн-2012 17:10

[Профиль]  [ЛС] 

Топик был перенесен из форума Мультфильмы в форум Мультсериалы

Pendalf

Создавать темы 23-Июн-2012 19:35

 

eldorado777

Стаж: 6 лет 9 месяцев

Сообщений: 118

Симпатии: 11

ne0d1n, скорости нет, остановите другие ваши раздачи, раздайте хоть одному человеку.
За 12 дней загрузил 7,5Гб - это жестоко! Дочка ни как не дождется когда скачается!

Создавать темы 30-Июн-2012 12:16

[Профиль]  [ЛС] 

ne0d1n ®

Стаж: 6 лет 10 месяцев

Сообщений: 64

Симпатии: 14

ne0d1n, скорости нет, остановите другие ваши раздачи, раздайте хоть одному человеку.
За 12 дней загрузил 7,5Гб - это жестоко! Дочка ни как не дождется когда скачается!
Сейчас стоит только WinX. скорость 20-30. У себя смотрите что не так...

Создавать темы 30-Июн-2012 15:25

[Профиль]  [ЛС] 

eldorado777

Стаж: 6 лет 9 месяцев

Сообщений: 118

Симпатии: 11

ne0d1n, я не могу с вас качать даже с отключеными фильтрами, мой клиент с вами не конектиться.

Создавать темы 01-Июл-2012 14:21

[Профиль]  [ЛС] 

Andrik

Стаж: 5 лет 3 месяца

Сообщений: 12

Симпатии: 1

дайте скорость качает 3кб/с я 2 года с такой скоростью качать буду

Создавать темы 06-Июл-2012 19:00

[Профиль]  [ЛС] 

NNPersona

Стаж: 5 лет 7 месяцев

Сообщений: 2

Сиды не уходите дайте скорость!!!сестра смотреть хоет не дождётся!!!

Создавать темы 07-Дек-2012 09:07

[Профиль]  [ЛС] 

NNPersona

Стаж: 5 лет 7 месяцев

Сообщений: 2

Сиды не уходите дайте скорость!!!сестра смотреть хоет не дождётся!!!

Создавать темы 07-Дек-2012 09:07

[Профиль]  [ЛС] 
Показать сообщения:    
Ответить на тему

Текущее время: 22-Авг 08:35

Часовой пояс: UTC + 5



Вы не можете начинать темы
Вы не можете отвечать на сообщения
Вы не можете редактировать свои сообщения
Вы не можете удалять свои сообщения
Вы не можете голосовать в опросах
Вы не можете прикреплять файлы к сообщениям
Вы не можете скачивать файлы