Револьвер / Revolver (Гай Ричи) [2005 г., Детектив, Криминал, BDRip 1080p]

Ответить на тему
 

surayyo87 ®

Стаж: 5 лет 8 месяцев

Сообщений: 8

Револьвер / Revolver
Год выпуска: 2005
Страна: Франция, Великобритания
Жанр: Детектив, Криминал
Продолжительность: 01:51:21
Перевод: Профессиональный (полное дублирование)
Режиссер: Гай Ричи
В ролях: Джейсон Стэйтем, Рэй Лиотта, Винсент Пасторе, Андре Бенджамин, Теренс Мэйнард, Эндрю Ховард, Марк Стронг, Франческа Аннис, Анжела Лоурен Смит, Элана Биниш
Описание: Семь лет назад Джек влип в неприятную историю. По всему городу шли нелегальные азартные игры — игры без правил, полные опасности, но приносящие хороший доход. Организовывал и присматривал за этими играми преступный босс Мака и его люди. Накануне одной «большой игры», Мака потерял своего парня, и его люди, узнав о Джеке Грине, решили, что он сможет подойти на замену. Грин, выслушав предложение ребят Маки, отказался, но ребята не отступили и стали давить на брата Джека и на его семью. Грин был вынужден сесть за карточный стол, чтобы брата с семьёй оставили в покое. Игру он выиграл. И с этого все началось…
Качество: BDRip 1080p
Формат: MKV
Видео кодек: H.264/AVC
Аудио кодек: DTS
Видео: 1920x816, 9 459 Kbps
Аудио 1: 6 channels, 755 Kbps | Дубляж
Аудио 2: 6 channels, 1 510 Kbps | Дубляж
Аудио 3: 6 channels, 1 510 Kbps | Оригинал

Media Info

General
Unique ID : 224287221105787598842259279844147325569 (0xA8BC25C45615BE3EACF435AFF379EA81)
Complete name : D:\Шара\revolver.1080.mkv
Format : Matroska
Format version : Version 2
File size : 10.3 GiB
Duration : 1h 51mn
Overall bit rate : 13.2 Mbps
Movie name : -=HANSMER=- (HQ-Films.ws)
Encoded date : UTC 2012-05-04 03:49:28
Writing application : mkvmerge v4.4.0 ('Die Wiederkehr') сборка от Oct 31 2010 21:52:48
Writing library : libebml v1.0.0 + libmatroska v1.0.0
Video
ID : 1
Format : AVC
Format/Info : Advanced Video Codec
Format profile : [email protected]
Format settings, CABAC : Yes
Format settings, ReFrames : 4 frames
Muxing mode : Header stripping
Codec ID : V_MPEG4/ISO/AVC
Duration : 1h 51mn
Bit rate : 9 459 Kbps
Width : 1 920 pixels
Height : 816 pixels
Display aspect ratio : 2.35:1
Frame rate : 23.976 fps
Color space : YUV
Chroma subsampling : 4:2:0
Bit depth : 8 bits
Scan type : Progressive
Bits/(Pixel*Frame) : 0.252
Stream size : 7.15 GiB (69%)
Title : Revolver.2005.Blu-Ray.1080p.x264-HQF
Writing library : x264 core 65 r999M cc51047
Encoding settings : cabac=1 / ref=4 / deblock=1:-1:-1 / analyse=0x3:0x113 / me=umh / subme=8 / psy_rd=1.0:0.0 / mixed_ref=1 / me_range=16 / chroma_me=1 / trellis=2 / 8x8dct=1 / cqm=0 / deadzone=21,11 / chroma_qp_offset=-2 / threads=6 / nr=0 / decimate=1 / mbaff=0 / bframes=3 / b_pyramid=0 / b_adapt=1 / b_bias=0 / direct=3 / wpredb=1 / keyint=250 / keyint_min=25 / scenecut=40(pre) / rc=2pass / bitrate=9459 / ratetol=1.0 / qcomp=0.60 / qpmin=10 / qpmax=51 / qpstep=4 / cplxblur=20.0 / qblur=0.5 / vbv_maxrate=50000 / vbv_bufsize=50000 / ip_ratio=1.40 / pb_ratio=1.30 / aq=1:1.00
Language : English
Default : Yes
Forced : No
Audio #1
ID : 2
Format : DTS
Format/Info : Digital Theater Systems
Muxing mode : Header stripping
Codec ID : A_DTS
Duration : 1h 51mn
Bit rate mode : Constant
Bit rate : 755 Kbps
Channel(s) : 6 channels
Channel positions : Front: L C R, Side: L R, LFE
Sampling rate : 48.0 KHz
Bit depth : 24 bits
Compression mode : Lossy
Stream size : 601 MiB (6%)
Language : Russian
Default : Yes
Forced : No
Audio #2
ID : 3
Format : DTS
Format/Info : Digital Theater Systems
Muxing mode : Header stripping
Codec ID : A_DTS
Duration : 1h 51mn
Bit rate mode : Constant
Bit rate : 1 510 Kbps
Channel(s) : 6 channels
Channel positions : Front: L C R, Side: L R, LFE
Sampling rate : 48.0 KHz
Bit depth : 24 bits
Compression mode : Lossy
Stream size : 1.17 GiB (11%)
Language : Russian
Default : No
Forced : No
Audio #3
ID : 4
Format : DTS
Format/Info : Digital Theater Systems
Muxing mode : Header stripping
Codec ID : A_DTS
Duration : 1h 51mn
Bit rate mode : Constant
Bit rate : 1 510 Kbps
Channel(s) : 6 channels
Channel positions : Front: L C R, Side: L R, LFE
Sampling rate : 48.0 KHz
Bit depth : 16 bits
Compression mode : Lossy
Stream size : 1.17 GiB (11%)
Language : English
Default : No
Forced : No
Text #1
ID : 5
Format : UTF-8
Codec ID : S_TEXT/UTF8
Codec ID/Info : UTF-8 Plain Text
Language : Russian
Default : Yes
Forced : No
Text #2
ID : 6
Format : UTF-8
Codec ID : S_TEXT/UTF8
Codec ID/Info : UTF-8 Plain Text
Language : English
Default : No
Forced : No

Скриншоты





Последний раз редактировалось: surayyo87 (2012-06-25 11:27), всего редактировалось 1 раз

Создавать темы 20-Июн-2012 21:59

[Профиль]  [ЛС] 

Топик был перенесен из форума Зарубежное кино в форум Зарубежное кино

Mixer City

Создавать темы 21-Июн-2012 00:24

 
Показать сообщения:    
Ответить на тему

Текущее время: 11-Дек 16:10

Часовой пояс: UTC + 5



Вы не можете начинать темы
Вы не можете отвечать на сообщения
Вы не можете редактировать свои сообщения
Вы не можете удалять свои сообщения
Вы не можете голосовать в опросах
Вы не можете прикреплять файлы к сообщениям
Вы не можете скачивать файлы