Шеф / Comme un chef (Дэниэл Коэн) [2012 г., комедия, DVDRip-AVC] [лицензия]

Ответить на тему
 

beksam ®

Стаж: 6 лет 11 месяцев

Сообщений: 15

Симпатии: 9

Шеф / Comme un chefГод выпуска: 2012
Страна: Франция , Испания / Gaumont, TF1 Films Production, A Contracorriente Films
Жанр: комедия
Продолжительность: 01:21:08
Перевод: Профессиональный (многоголосый, закадровый) [лицензия]
Режиссер: Дэниэл Коэн
В ролях: Жан Рено, Микаэль Юн, Рафаэль Агоге, Жюльен Буасселье, Салом Стевенен, Серж Ларивье, Исса Думбия, Бан Хэй Мин, Пьер Вернье, Сантьяго Сегура
Описание: Молодой начинающий повар пытается изменить жизненный устой и предпочтения уже известного «звёздного» шеф-повара, и это упрямство и упорство делает из молодого человека настоящего короля кухни!
Качество: DVDRip-AVC
Формат: MKV
Видео кодек: H.26x
Аудио кодек: AC3
Видео: H.264, 720x304 (1,37:1), 25,000 кадр/сек, 2201 Кбит/сек, 0.402 bit/pixel
Аудио: 48 kHz, AC3 Dolby Digital, 3/2 (L,C,R,l,r) + LFE ch, ~384.00 kbps avg
IMDB: 6.3
КиноПоиск: 7.1

Media Info

Общее
Формат : Matroska
Версия формата : Version 2
Размер файла : 1,47 Гбайт
Продолжительность : 1 ч. 21 м.
Общий поток : 2586 Кбит/сек
Дата кодирования : UTC 2012-06-09 03:17:32
Программа кодирования : mkvmerge v5.6.0 ('Kenya Kane') built on May 27 2012 16:44:04
Библиотека кодирования : libebml v1.2.3 + libmatroska v1.3.0
Видео
Идентификатор : 1
Формат : AVC
Формат/Информация : Advanced Video Codec
Профиль формата : [email protected]
Параметр CABAC формата : Да
Параметр ReFrames формата : 9 кадров
Идентификатор кодека : V_MPEG4/ISO/AVC
Продолжительность : 1 ч. 21 м.
Битрейт : 2201 Кбит/сек
Ширина : 720 пикселей
Высота : 304 пикселя
Соотношение сторон : 2,35:1
Соотношение сторон в оригинале : 2,40:1
Режим частоты кадров : Переменный
Частота кадров : 25,000 кадров/сек
Цветовое пространство : YUV
Субдискретизация насыщенности : 4:2:0
Битовая глубина : 8 бит
Тип развёртки : MBAFF
Бит/(Пиксели*Кадры) : 0.402
Размер потока : 1,22 Гбайт (83%)
Заголовок : Shef.2012.P.DVDRip.x264.potroks
Библиотека кодирования : x264 core 116 r2019M 9cc407d
Настройки программы : cabac=1 / ref=10 / deblock=1:-2:-1 / analyse=0x3:0x133 / me=umh / subme=9 / psy=1 / psy_rd=1.00:0.00 / mixed_ref=1 / me_range=42 / chroma_me=1 / trellis=1 / 8x8dct=1 / cqm=0 / deadzone=21,13 / fast_pskip=0 / chroma_qp_offset=-2 / threads=8 / sliced_threads=0 / nr=0 / decimate=1 / interlaced=tff / bluray_compat=0 / constrained_intra=0 / bframes=8 / b_pyramid=1 / b_adapt=2 / b_bias=0 / direct=3 / weightb=1 / open_gop=0 / weightp=0 / keyint=250 / keyint_min=25 / scenecut=40 / intra_refresh=0 / rc_lookahead=100 / rc=2pass / mbtree=1 / bitrate=2201 / ratetol=1.0 / qcomp=0.60 / qpmin=10 / qpmax=53 / qpstep=4 / cplxblur=20.0 / qblur=0.7 / ip_ratio=1.40 / aq=1:1.20
Язык : French
Default : Да
Forced : Нет
Аудио
Идентификатор : 2
Формат : AC-3
Формат/Информация : Audio Coding 3
Расширение режима : CM (complete main)
Идентификатор кодека : A_AC3
Продолжительность : 1 ч. 21 м.
Вид битрейта : Постоянный
Битрейт : 384 Кбит/сек
Каналы : 6 каналов
Расположение каналов : Front: L C R, Side: L R, LFE
Частота : 48,0 КГц
Битовая глубина : 16 бит
Метод сжатия : С потерями
Размер потока : 223 Мбайт (15%)
Заголовок : MVO AC3, 5.1 ch., 384 kbps
Язык : Russian
Default : Да
Forced : Нет

Скриншоты










Создавать темы 21-Июн-2012 09:19

[Профиль]  [ЛС] 
Показать сообщения:    
Ответить на тему

Текущее время: 17-Авг 20:37

Часовой пояс: UTC + 5



Вы не можете начинать темы
Вы не можете отвечать на сообщения
Вы не можете редактировать свои сообщения
Вы не можете удалять свои сообщения
Вы не можете голосовать в опросах
Вы не можете прикреплять файлы к сообщениям
Вы не можете скачивать файлы