PPV WWE - 2012.06.17 - No Way Out 2012 (Preshow) [2012 г., Рестлинг, HDTV]

Ответить на тему
 

Спартанец ®

Стаж: 5 лет 7 месяцев

Сообщений: 361

-PPV WWE - 2012.06.17 - No Way Out 2012 (Preshow) Год выпуска: 2012
Вид спорта: Рестлинг
Участники: Звезды WWE
Продолжительность: 00.29.53
Комментарий: Профессиональный (многоголосый, закадровый)
Язык комментариев: Русский
Описание: Новое PPV No Way Out 2012
Качество: HDTV
Формат: Mр4
Видео кодек: MPEG4
Аудио кодек: AAC
Видео: MPEG4, Video, (H264), 704x400, 25fps, 1 391 Kbps
Аудио: AAC, 44100Hz, stereo, 127 Kbps

Кард


Девид Отанга против Бродуса Клэя

Скриншоты

МедиаИнфо

General
Format : MPEG-4
Format profile : Base Media
Codec ID : isom
File size : 325 MiB
Duration : 29mn 52s
Overall bit rate mode : Variable
Overall bit rate : 1 521 Kbps
Encoded date : UTC 2012-06-17 15:16:02
Tagged date : UTC 2012-06-17 15:16:02
Writing application : Yamb 2.1.0.0 [http://yamb.unite-video.com]
Video
ID : 2
Format : AVC
Format/Info : Advanced Video Codec
Format profile : [email protected]
Format settings, CABAC : Yes
Format settings, ReFrames : 3 frames
Codec ID : avc1
Codec ID/Info : Advanced Video Coding
Duration : 29mn 52s
Bit rate mode : Constant
Bit rate : 1 391 Kbps
Nominal bit rate : 1 500 Kbps / 1 500 Kbps
Maximum bit rate : 2 718 Kbps
Width : 704 pixels
Height : 400 pixels
Display aspect ratio : 16:9
Frame rate mode : Constant
Frame rate : 25.000 fps
Standard : NTSC
Color space : YUV
Chroma subsampling : 4:2:0
Bit depth : 8 bits
Scan type : Progressive
Bits/(Pixel*Frame) : 0.198
Stream size : 297 MiB (91%)
Writing library : x264 core 114
Encoding settings : cabac=1 / ref=3 / deblock=1:0:0 / analyse=0x3:0x113 / me=hex / subme=7 / psy=1 / psy_rd=1.00:0.00 / mixed_ref=1 / me_range=16 / chroma_me=1 / trellis=1 / 8x8dct=1 / cqm=2 / deadzone=21,11 / fast_pskip=1 / chroma_qp_offset=-2 / threads=6 / sliced_threads=0 / slices=1 / nr=0 / decimate=1 / interlaced=0 / constrained_intra=0 / bframes=3 / b_pyramid=0 / b_adapt=1 / b_bias=0 / direct=1 / weightb=1 / open_gop=0 / weightp=2 / keyint=250 / keyint_min=25 / scenecut=40 / intra_refresh=0 / rc_lookahead=40 / rc=cbr / mbtree=1 / bitrate=1500 / ratetol=1.0 / qcomp=0.60 / qpmin=3 / qpmax=69 / qpstep=4 / vbv_maxrate=1500 / vbv_bufsize=1490 / nal_hrd=cbr / ip_ratio=1.40 / aq=1:1.00
Tagged date : UTC 2012-06-17 15:16:35
Color primaries : BT.470-6 System B, BT.470-6 System G, BT.601-6 625, BT.1358 625, BT.1700 625 PAL, BT.1700 625 SECAM
Transfer characteristics : BT.470-6 System B, BT.470-6 System G
Matrix coefficients : BT.470-6 System B, BT.470-6 System G, BT.601-6 625, BT.1358 625, BT.1700 625 PAL, BT.1700 625 SECAM, IEC 61966-2-4 601
Audio
ID : 3
Format : AAC
Format/Info : Advanced Audio Codec
Format profile : LC
Codec ID : 40
Duration : 29mn 52s
Bit rate mode : Variable
Bit rate : 127 Kbps
Maximum bit rate : 158 Kbps
Channel(s) : 2 channels
Channel positions : Front: L R
Sampling rate : 44.1 KHz
Compression mode : Lossy
Stream size : 27.2 MiB (8%)
Encoded date : UTC 2012-06-17 15:16:33
Tagged date : UTC 2012-06-17 15:16:35

Создавать темы 21-Июн-2012 21:58

[Профиль]  [ЛС] 

Frozzen

Стаж: 5 лет 3 месяца

Сообщений: 88

а весь No Way Out 2012 будет?

Создавать темы 21-Июн-2012 22:06

[Профиль]  [ЛС] 

nikita

Стаж: 6 лет 11 месяцев

Сообщений: 82

Симпатии: 4

реально весь залей че один бой не интересно смореть.

Создавать темы 21-Июн-2012 22:11

[Профиль]  [ЛС] 

Спартанец ®

Стаж: 5 лет 7 месяцев

Сообщений: 361

будет, это пришоу, кому интересно. Залил Само шоу. Качайте на здоровье )

Создавать темы 21-Июн-2012 22:28

[Профиль]  [ЛС] 

Frozzen

Стаж: 5 лет 3 месяца

Сообщений: 88

спс большое)))

Создавать темы 21-Июн-2012 22:30

[Профиль]  [ЛС] 

rey mysterio

Стаж: 5 лет 8 месяцев

Сообщений: 164

Уре не ужели)) Спс Спартанец +1

Создавать темы 22-Июн-2012 11:06

[Профиль]  [ЛС] 
Показать сообщения:    
Ответить на тему

Текущее время: 23-Сен 07:02

Часовой пояс: UTC + 5



Вы не можете начинать темы
Вы не можете отвечать на сообщения
Вы не можете редактировать свои сообщения
Вы не можете удалять свои сообщения
Вы не можете голосовать в опросах
Вы не можете прикреплять файлы к сообщениям
Вы не можете скачивать файлы