PPV WWE - 2012.06.17 - No Way Out 2012 [2012 г., Реслинг, HDTV]

Страницы :  1, 2  След.

Ответить на тему
 

Спартанец ®

Стаж: 5 лет 7 месяцев

Сообщений: 361

-PPV WWE - 2012.06.17 - No Way Out 2012 Год выпуска: 2012
Вид спорта: Реслинг
Участники: Звезды WWE
Продолжительность: 02.49.48
Комментарий: Профессиональный (многоголосый, закадровый)
Язык комментариев: Русский
Описание: Новое PPV No Way Out 2012
Качество: HDTV
Формат: Mр4
Видео кодек: MPEG4
Аудио кодек: AAC
Видео: MPEG4, Video, (H264), 704x400, 29.97fps, 1 463 Kbps
Аудио: AAC, 44100Hz, stereo, 128 Kbps

Кард

Triple Threat match for the WWE Championship
CM Punk vs. Kane vs. Daniel Bryan
- World Heavyweight Championship
Sheamus vs. Dolph Ziggler
- Tuxedo match
Santino Marella vs. Ricardo Rodriguez
- Divas Championship
Layla vs. Beth Phoenix
- Steel Cage match If Big Show loses, John Laurinaitis will be fired. If John Cena loses, he will be fired
John Cena vs. Big Show
-

Скриншоты

МедиаИнфо

General
Format : MPEG-4
Format profile : Base Media
Codec ID : isom
File size : 1.89 GiB
Duration : 2h 49mn
Overall bit rate mode : Variable
Overall bit rate : 1 595 Kbps
Encoded date : UTC 2012-06-17 17:55:43
Tagged date : UTC 2012-06-17 17:55:43
Writing application : Yamb 2.1.0.0 [http://yamb.unite-video.com]
Video
ID : 1
Format : AVC
Format/Info : Advanced Video Codec
Format profile : [email protected]
Format settings, CABAC : Yes
Format settings, ReFrames : 4 frames
Codec ID : avc1
Codec ID/Info : Advanced Video Coding
Duration : 2h 49mn
Bit rate : 1 463 Kbps
Maximum bit rate : 2 572 Kbps
Width : 704 pixels
Height : 400 pixels
Display aspect ratio : 16:9
Frame rate mode : Constant
Frame rate : 29.970 fps
Color space : YUV
Chroma subsampling : 4:2:0
Bit depth : 8 bits
Scan type : Progressive
Bits/(Pixel*Frame) : 0.173
Stream size : 1.73 GiB (92%)
Writing library : x264 core 125 r2200 999b753
Encoding settings : cabac=1 / ref=5 / deblock=1:0:0 / analyse=0x3:0x113 / me=umh / subme=9 / psy=1 / psy_rd=1.00:0.00 / mixed_ref=1 / me_range=16 / chroma_me=1 / trellis=1 / 8x8dct=1 / cqm=0 / deadzone=21,11 / fast_pskip=1 / chroma_qp_offset=-2 / threads=12 / lookahead_threads=2 / sliced_threads=0 / nr=0 / decimate=1 / interlaced=0 / bluray_compat=0 / constrained_intra=0 / bframes=3 / b_pyramid=1 / b_adapt=2 / b_bias=0 / direct=3 / weightb=1 / open_gop=0 / weightp=2 / keyint=300 / keyint_min=30 / scenecut=40 / intra_refresh=0 / rc_lookahead=40 / rc=crf / mbtree=1 / crf=19.0 / qcomp=0.60 / qpmin=0 / qpmax=69 / qpstep=4 / vbv_maxrate=1500 / vbv_bufsize=1450 / crf_max=0.0 / nal_hrd=none / ip_ratio=1.40 / aq=1:1.00
Encoded date : UTC 2011-09-08 11:43:25
Tagged date : UTC 2012-06-17 17:59:23
Audio
ID : 2
Format : AAC
Format/Info : Advanced Audio Codec
Format profile : LC
Codec ID : 40
Duration : 2h 49mn
Bit rate mode : Variable
Bit rate : 128 Kbps
Maximum bit rate : 173 Kbps
Channel(s) : 2 channels
Channel positions : Front: L R
Sampling rate : 44.1 KHz
Compression mode : Lossy
Stream size : 155 MiB (8%)
Encoded date : UTC 2012-06-17 17:59:06
Tagged date : UTC 2012-06-17 17:59:23

Создавать темы 21-Июн-2012 22:25

[Профиль]  [ЛС] 

Frozzen

Стаж: 5 лет 4 месяца

Сообщений: 88

вот это уже полная, начинаем качать)

Создавать темы 21-Июн-2012 22:32

[Профиль]  [ЛС] 

nikita

Стаж: 6 лет 11 месяцев

Сообщений: 82

Симпатии: 4

вот это уже другое дело.качаем.

Создавать темы 21-Июн-2012 22:34

[Профиль]  [ЛС] 

Спартанец ®

Стаж: 5 лет 7 месяцев

Сообщений: 361

Всегда пожалуйста )

Создавать темы 21-Июн-2012 22:37

[Профиль]  [ЛС] 

LiX

Стаж: 6 лет 4 месяца

Сообщений: 254

Симпатии: 6

Огромное спс!

Создавать темы 22-Июн-2012 04:54

[Профиль]  [ЛС] 

Emil_Safa

Стаж: 5 лет 3 месяца

Сообщений: 102

Cпасибо)
Жалко что всегда в формате mp4,места на харде не хватает приходится качать на диск и смотреть на DVD,а Dvd не видит почему-то mp4(

Создавать темы 22-Июн-2012 12:16

[Профиль]  [ЛС] 

Kroys

Стаж: 5 лет 11 месяцев

Сообщений: 187

Симпатии: 1

да да ) спасибООО)

Создавать темы 22-Июн-2012 12:38

[Профиль]  [ЛС] 

LiX

Стаж: 6 лет 4 месяца

Сообщений: 254

Симпатии: 6

А когда будет раздача?

Создавать темы 22-Июн-2012 19:31

[Профиль]  [ЛС] 

The Game

Стаж: 5 лет 6 месяцев

Сообщений: 80

Симпатии: 1

Спасибо большое Спартанец,

Создавать темы 22-Июн-2012 20:20

[Профиль]  [ЛС] 

RokC

Стаж: 5 лет 8 месяцев

Сообщений: 56

Спасибо огромное Спартанец а это у всех так отдают больше чем сами скачали у меня коэффицент этого файла уже 1200 скачал всего зо%

Создавать темы 22-Июн-2012 20:47

[Профиль]  [ЛС] 

NodirAgenT

Стаж: 6 лет 5 месяцев

Сообщений: 204

Yes Yes Yes СпС БОльшое Спартанец
Музыкальная Тема ( Еси нуно Я Залю В ТАс ИКс Charm City Devils — Unstoppable
Я залью Картинки ( Для Money in the Bank (2012)
И На Постере Которого Изображен Дель Рио )
Money in the Bank — это pay-per-view (ППВ) шоу которое проводит World Wrestling Entertainment. Шоу пройдет 15 июля 2012 года в ЮС Эйрвейс-центре, Финикс, Аризона, США. Концепция шоу основана вокруг битвы с лестницами «Деньги в банке». Третье ППВ «Money in the Bank» и девятое ППВ, которое проводит битву «Деньги в банке».

_________________
Подпись отключена за нарушение правил форума

Создавать темы 23-Июн-2012 00:04

[Профиль]  [ЛС] 

Kroys

Стаж: 5 лет 11 месяцев

Сообщений: 187

Симпатии: 1

оО красавчик)))

Создавать темы 23-Июн-2012 13:31

[Профиль]  [ЛС] 

rey mysterio

Стаж: 5 лет 8 месяцев

Сообщений: 164

Скорость дай поболше 1% остался

Создавать темы 23-Июн-2012 18:33

[Профиль]  [ЛС] 

LiX

Стаж: 6 лет 4 месяца

Сообщений: 254

Симпатии: 6

Ребята поднажмите 0,5% остался! Уже 2 часа докачать не могу!
Как докачаю буду раздавать по полной

Создавать темы 23-Июн-2012 20:07

[Профиль]  [ЛС] 

NodirAgenT

Стаж: 6 лет 5 месяцев

Сообщений: 204

Ребят Что делать помогите ВАще не качает никакие файлы Плиисссс все красное уже 3 дня

_________________
Подпись отключена за нарушение правил форума

Создавать темы 24-Июн-2012 11:55

[Профиль]  [ЛС] 
Показать сообщения:    
Ответить на тему

Текущее время: 25-Сен 03:56

Часовой пояс: UTC + 5



Вы не можете начинать темы
Вы не можете отвечать на сообщения
Вы не можете редактировать свои сообщения
Вы не можете удалять свои сообщения
Вы не можете голосовать в опросах
Вы не можете прикреплять файлы к сообщениям
Вы не можете скачивать файлы