Кровь Последний вампир / Blood The last vampire (Крис Наон) [2009 г., Ужасы, Фэнтези, Боевик, Триллер, DVDRip]

Страницы :  1, 2  След.

Ответить на тему
 

Kubaev_Muhiddin ®

Стаж: 6 лет 7 месяцев

Сообщений: 104

Симпатии: 34

Кровь Последний вампир / Blood The last vampire
Год выпуска: 2009
Страна: Франция, Гонконг, Китай
Жанр: Ужасы, Фэнтези, Боевик, Триллер
Продолжительность: 01:28:37
Перевод: Профессиональный (многоголосый, закадровый)
Режиссер: Крис Наон
Продюссер: Уильям Конг, Абель Намиас, Фернандо Альтшул
Сценарий: Крис Чоу, Кенджи Камияма, Катсуа Терада
Бюджет: 30 000 000 $
Премьера в мире: 2 апреля 2009
В ролях: Джианна Юн, Эллисон Миллер, Лиам Каннингэм, Джей Джей Филд, Коюки, Ясуаки Курата, Ларри Ламб, Эндрю Плевин, Майкл Бирн, Колин Сэлмон
Описание: Киноадаптация знаменитой японской манги. Работающий на правительство вампир командирован в спецшколу и обнаруживает, что один из учеников — замаскированный демон.
Доп. информация:
Сборы в США 257 412 $
Сборы в мире + 5 617 118 $ = 5 874 530 $
DVD в США 626 191 $
Качество: DVDRip
Формат: AVI
Видео кодек: XVID
Аудио кодек: AC-3 2000
Видео: Xvid 720x304 23.976 fps 1 548 kbps
Аудио #1: Dolby AC3 48000 Hz Stereo 192 kbps (Stream 1 Russian закадровый)
Аудио #2: Dolby AC3 48000 Hz 6ch. 448 kbps (Stream 2 English)

Медиа инфо

Video
ID : 0
Format : MPEG-4 Visual
Format profile : Advanced [email protected]
Format settings, BVOP : 3
Format settings, QPel : No
Format settings, GMC : No warppoints
Format settings, Matrix : Custom
Codec ID : XVID
Codec ID/Hint : XviD
Duration : 1h 28mn
Bit rate : 1 548 Kbps
Width : 720 pixels
Height : 304 pixels
Display aspect ratio : 2.35:1
Frame rate : 23.976 fps
Color space : YUV
Chroma subsampling : 4:2:0
Bit depth : 8 bits
Scan type : Progressive
Compression mode : Lossy
Bits/(Pixel*Frame) : 0.295
Stream size : 981 MiB (70%)
Writing library : XviD 1.2.1 (UTC 2008-12-04)
Audio #1
ID : 1
Format : AC-3
Format/Info : Audio Coding 3
Mode extension : CM (complete main)
Codec ID : 2000
Duration : 1h 28mn
Bit rate mode : Constant
Bit rate : 192 Kbps
Channel(s) : 2 channels
Channel positions : Front: L R
Sampling rate : 48.0 KHz
Bit depth : 16 bits
Compression mode : Lossy
Delay relative to video : 12ms
Stream size : 122 MiB (9%)
Alignment : Split accross interleaves
Interleave, duration : 42 ms (1.00 video frame)
Interleave, preload duration : 500 ms
Audio #2
ID : 2
Format : AC-3
Format/Info : Audio Coding 3
Mode extension : CM (complete main)
Codec ID : 2000
Duration : 1h 28mn
Bit rate mode : Constant
Bit rate : 448 Kbps
Channel(s) : 6 channels
Channel positions : Front: L C R, Side: L R, LFE
Sampling rate : 48.0 KHz
Bit depth : 16 bits
Compression mode : Lossy
Stream size : 284 MiB (20%)
Alignment : Split accross interleaves
Interleave, duration : 42 ms (1.00 video frame)
Interleave, preload duration : 500 ms

Скриншоты




Создавать темы 23-Июн-2012 02:31

[Профиль]  [ЛС] 

knyaz31337

Стаж: 6 лет 4 месяца

Сообщений: 396

Симпатии: 20

Судя по сборам — фильм полный провал. Вложили 30 лямов, а в итоге получили 6 758 133, странно как-то...Это случайно не Кровь+?

Создавать темы 23-Июн-2012 10:12

[Профиль]  [ЛС] 

kvint

Стаж: 7 лет 7 месяцев

Сообщений: 84

Симпатии: 5

да. это по Blood+
полный шлак

Создавать темы 23-Июн-2012 21:59

[Профиль]  [ЛС] 

Kubaev_Muhiddin ®

Стаж: 6 лет 7 месяцев

Сообщений: 104

Симпатии: 34

knyaz31337, kvint, если вложили 30 лямов это их проблема, пожалуйста держите свои мнения при себе, и ешё, это не Blood+, если не понравилось не качай

Создавать темы 24-Июн-2012 10:10

[Профиль]  [ЛС] 

mihey

Стаж: 5 лет 5 месяцев

Сообщений: 14

Симпатии: 1

Kubaev_Muhiddin ® плиз дай скорости по максимуму. 2 день качаю, скорость черепашея

Создавать темы 24-Июн-2012 19:35

[Профиль]  [ЛС] 

sila4

Стаж: 5 лет 7 месяцев

Сообщений: 27

Симпатии: 3

дайте скорости

Создавать темы 24-Июн-2012 20:15

[Профиль]  [ЛС] 

Kubaev_Muhiddin ®

Стаж: 6 лет 7 месяцев

Сообщений: 104

Симпатии: 34

mihey, sila4, раздаю по 60 к/битс

Создавать темы 24-Июн-2012 21:21

[Профиль]  [ЛС] 

sila4

Стаж: 5 лет 7 месяцев

Сообщений: 27

Симпатии: 3

Kubaev_Muhiddin, спасибо уже скачал!

Создавать темы 25-Июн-2012 10:05

[Профиль]  [ЛС] 

Kubaev_Muhiddin ®

Стаж: 6 лет 7 месяцев

Сообщений: 104

Симпатии: 34

Не за что sila4, не уходите с раздачи

Создавать темы 26-Июн-2012 14:00

[Профиль]  [ЛС] 

knyaz31337

Стаж: 6 лет 4 месяца

Сообщений: 396

Симпатии: 20

Kubaev_Muhiddin, мнения при себе ни кто здесь держать не собирается. По правилам трэкера пользователи имеют права обсуждать тот или иной фильм. У меня у самого куча раздач и их также обсуждают, это нормально.

Создавать темы 26-Июн-2012 15:36

[Профиль]  [ЛС] 

Rambotnik

Стаж: 6 лет 4 месяца

Сообщений: 1274

Симпатии: 81

На самом деле, кноэкранизация крови была самой провальной экранизацией манги, которую видел свет. Намного интереснее смотреть кламповскую переработку "Кровь-С".
З.Ы. Кстати, ждём полнометражку Blood-C: The last dark

Создавать темы 26-Июн-2012 16:06

[Профиль]  [ЛС] 

knyaz31337

Стаж: 6 лет 4 месяца

Сообщений: 396

Симпатии: 20

Rambotnik, так это все таки "Кровь +"? Просто, если Да, то я видел этот фильм, вообще так себе, ни о чем...

Создавать темы 26-Июн-2012 16:18

[Профиль]  [ЛС] 

adrealine

Стаж: 5 лет 7 месяцев

Сообщений: 1

sPOSIBO ZA DARYONIYI FILMAV

Создавать темы 19-Июл-2012 07:57

[Профиль]  [ЛС] 

Furious

Стаж: 4 года 10 месяцев

Сообщений: 10

Прошу встать на раздачу.

Создавать темы 11-Ноя-2012 08:27

[Профиль]  [ЛС] 

Furious

Стаж: 4 года 10 месяцев

Сообщений: 10

Встаньте пожалуйста на раздачу, а то прогресс нулевой уже несколько дней.

Создавать темы 14-Ноя-2012 10:07

[Профиль]  [ЛС] 
Показать сообщения:    
Ответить на тему

Текущее время: 22-Сен 15:03

Часовой пояс: UTC + 5



Вы не можете начинать темы
Вы не можете отвечать на сообщения
Вы не можете редактировать свои сообщения
Вы не можете удалять свои сообщения
Вы не можете голосовать в опросах
Вы не можете прикреплять файлы к сообщениям
Вы не можете скачивать файлы