WWE Monday Night Raw 2012/06/18 [2012 г., Реслинг, HDTV]

Страницы :  1, 2, 3  След.

Ответить на тему
 

Спартанец ®

Стаж: 5 лет 7 месяцев

Сообщений: 361

WWE Monday Night Raw 2012/06/18- Год выпуска: 2012
Вид спорта: Реслинг
Участники: Звезды WWE
Продолжительность: 01.34.38
Комментарий: Профессиональный (многоголосый, закадровый)
Язык комментариев: Русский
Описание: Еженедельный выпуск RAW. Выпуск от 18-го июня 2012 года
Качество: HDTV
Формат: Mр4
Видео кодек: x264 \ AVC
Аудио кодек: AAC
Видео: MPEG4, Video, (H264), 704x400, 29.97fps, 1 435 Kbps
Аудио: AAC, 44100Hz, stereo, 1411kbps, 128 Kbps

MediaInfo

General
Format : MPEG-4
Format profile : Base Media
Codec ID : isom
File size : 1.04 GiB
Duration : 1h 34mn
Overall bit rate mode : Variable
Overall bit rate : 1 567 Kbps
Encoded date : UTC 2012-06-18 13:46:39
Tagged date : UTC 2012-06-18 13:46:39
Writing application : Yamb 2.1.0.0 [http://yamb.unite-video.com]
Video
ID : 1
Format : AVC
Format/Info : Advanced Video Codec
Format profile : [email protected]
Format settings, CABAC : Yes
Format settings, ReFrames : 4 frames
Codec ID : avc1
Codec ID/Info : Advanced Video Coding
Duration : 1h 34mn
Bit rate : 1 435 Kbps
Maximum bit rate : 2 643 Kbps
Width : 704 pixels
Height : 400 pixels
Display aspect ratio : 16:9
Frame rate mode : Constant
Frame rate : 29.970 fps
Color space : YUV
Chroma subsampling : 4:2:0
Bit depth : 8 bits
Scan type : Progressive
Bits/(Pixel*Frame) : 0.170
Stream size : 971 MiB (92%)
Writing library : x264 core 125 r2200 999b753
Encoding settings : cabac=1 / ref=5 / deblock=1:0:0 / analyse=0x3:0x113 / me=umh / subme=9 / psy=1 / psy_rd=1.00:0.00 / mixed_ref=1 / me_range=16 / chroma_me=1 / trellis=1 / 8x8dct=1 / cqm=0 / deadzone=21,11 / fast_pskip=1 / chroma_qp_offset=-2 / threads=12 / lookahead_threads=2 / sliced_threads=0 / nr=0 / decimate=1 / interlaced=0 / bluray_compat=0 / constrained_intra=0 / bframes=3 / b_pyramid=1 / b_adapt=2 / b_bias=0 / direct=3 / weightb=1 / open_gop=0 / weightp=2 / keyint=300 / keyint_min=30 / scenecut=40 / intra_refresh=0 / rc_lookahead=40 / rc=crf / mbtree=1 / crf=19.0 / qcomp=0.60 / qpmin=0 / qpmax=69 / qpstep=4 / vbv_maxrate=1500 / vbv_bufsize=1450 / crf_max=0.0 / nal_hrd=none / ip_ratio=1.40 / aq=1:1.00
Language : English
Encoded date : UTC 2012-06-18 03:27:55
Tagged date : UTC 2012-06-18 13:48:26
Audio
ID : 2
Format : AAC
Format/Info : Advanced Audio Codec
Format profile : LC
Codec ID : 40
Duration : 1h 34mn
Bit rate mode : Variable
Bit rate : 128 Kbps
Maximum bit rate : 188 Kbps
Channel(s) : 2 channels
Channel positions : Front: L R
Sampling rate : 44.1 KHz
Compression mode : Lossy
Stream size : 86.6 MiB (8%)
Encoded date : UTC 2012-06-18 13:48:08
Tagged date : UTC 2012-06-18 13:48:26

Скриншоты

Создавать темы 23-Июн-2012 14:21

[Профиль]  [ЛС] 

LiX

Стаж: 6 лет 3 месяца

Сообщений: 254

Симпатии: 6

Это который сегодня по 2х2 будут показывать?

Создавать темы 23-Июн-2012 14:44

[Профиль]  [ЛС] 

RokC

Стаж: 5 лет 8 месяцев

Сообщений: 56

а можно кард

Создавать темы 23-Июн-2012 14:56

[Профиль]  [ЛС] 

Dj_bobur11

Стаж: 5 лет 4 месяца

Сообщений: 11

Симпатии: 1

ЛиХ, точна

Создавать темы 23-Июн-2012 15:29

[Профиль]  [ЛС] 

The Game

Стаж: 5 лет 6 месяцев

Сообщений: 80

Симпатии: 1

Спасибо Спартанец,

Создавать темы 23-Июн-2012 15:37

[Профиль]  [ЛС] 

Frozzen

Стаж: 5 лет 3 месяца

Сообщений: 88

и по 2х2 и скачать можно, это уже выбирать должны мы сами)

Создавать темы 23-Июн-2012 16:36

[Профиль]  [ЛС] 

Спартанец ®

Стаж: 5 лет 7 месяцев

Сообщений: 361

Ребят, я Карда не нашел. Кто знает впишите, я исправлю ) Я не знаю как по 2х2 показывают, но этот выпуск понедельника этой недели )

Создавать темы 23-Июн-2012 16:50

[Профиль]  [ЛС] 

Frozzen

Стаж: 5 лет 3 месяца

Сообщений: 88

на 2x2 Monday Night Raw показывают по субботам, а Friday Night Smackdown показывают в воскресенье.

Создавать темы 23-Июн-2012 17:22

[Профиль]  [ЛС] 

rey mysterio

Стаж: 5 лет 8 месяцев

Сообщений: 164

А чо здесь забыл Лоуринайтес? его же уволили

Создавать темы 23-Июн-2012 17:38

[Профиль]  [ЛС] 

Kroys

Стаж: 5 лет 11 месяцев

Сообщений: 187

Симпатии: 1

он приходит просто поболтать :)))

Создавать темы 23-Июн-2012 18:41

[Профиль]  [ЛС] 

LiX

Стаж: 6 лет 3 месяца

Сообщений: 254

Симпатии: 6

Всем привет! Короче только что посмотрел RAW по 2x2, жаль что не всё показывают т.е. Продолжительность не 01.34.38, а 45 минут примерно!
Дрались CM Punk & Sheamus vs Daniel Bryan & Kane. А в конце сюрприз)) bp
D. Zigler vs J. Zwager
И Cena vs Big Show & Otunga & Laurinaites

Создавать темы 23-Июн-2012 22:28

[Профиль]  [ЛС] 

rey mysterio

Стаж: 5 лет 8 месяцев

Сообщений: 164

LiX, только не говори ,что Лоуринайтеса взяли назад

Создавать темы 23-Июн-2012 22:33

[Профиль]  [ЛС] 

Спартанец ®

Стаж: 5 лет 7 месяцев

Сообщений: 361

Видать вырезали все разговоры и прочее )) Короче - Таг тим матч - "Си Эм Панк и Шеймус, против Брайна и Кейна. Одиночный матч Зиглер и Свайгер. Одиночный матч С. Марелла против Альберто дель Рио. Таг тим Матч Тайтус о Нил и Дарен Янг против Примо и Эпико. И Гандикап матч 3 на 1. Джон Лоуринайтис, Биг Шоу и Девид Отанга против Джона Сины :)

Создавать темы 23-Июн-2012 23:07

[Профиль]  [ЛС] 

LiX

Стаж: 6 лет 3 месяца

Сообщений: 254

Симпатии: 6

rey mysterio, успокойся не взяли))
А ещё Трипл Н и адвокат Леснара "беседовали"

Создавать темы 23-Июн-2012 23:34

[Профиль]  [ЛС] 

Frozzen

Стаж: 5 лет 3 месяца

Сообщений: 88

будет интересный бой Брока против Игрока)

Создавать темы 24-Июн-2012 01:43

[Профиль]  [ЛС] 
Показать сообщения:    
Ответить на тему

Текущее время: 22-Сен 11:19

Часовой пояс: UTC + 5



Вы не можете начинать темы
Вы не можете отвечать на сообщения
Вы не можете редактировать свои сообщения
Вы не можете удалять свои сообщения
Вы не можете голосовать в опросах
Вы не можете прикреплять файлы к сообщениям
Вы не можете скачивать файлы