Сборник клипов Linkin Park [2012 г., Зарубежные Alternative, Punk, Independent, TVRip]

Страницы :  1, 2  След.

Ответить на тему
 

Hasanbek ®

Стаж: 6 лет 7 месяцев

Сообщений: 161

Симпатии: 6

-Сборник клипов Linkin Park- -Страна: США(USA)
Жанр: Зарубежные Alternative, Punk, Independent
Год выпуска: 2003-2014
Формат: AVI
Продолжительность: 1 песня - примерно 3 мин 10 сек

Треклист

1. Bleed It Out
2. Breaking The Habbit
3. Burn It Down
4. Burning In The Skies
5. Busta Rhymes ft. Linkin Park-We Made It
6. The Catalyst
7. Crawling
8. Faint
9. Frgt_10
10. From The Inside
11. Given Up
12. In The End
13. Iridescent
14. Leave Out All The Rest
15. Powerless
16. Shadow Of The Day
17. New Divide
18. Not Alone
19. Numb
20. One Step Closer
21. Papercut
22. Points Of Authority
23. Somewhere I Belong
24. Waiting For The End
25. What I've Done.
26. Castle Of Glass
27. 2000-2014
28. Enth E Nd
29. It's Goin' Down
30. Kyur4 Th Ich
31. Numb (ft. Jay-Z)
32. Until It's Gone
33. A Light That Never Comes ft. Steve Aoki
34. Dead By Sunrise - Let Down
35. A Light That Never Comes (Lyrycs Video)
36. Lost In The Echo
37. Numb (Full-HD)
-Доп. информация: Linkin Park — американская группа из Лос-Анджелеса, играющая альтернативу и экспериментирующая мелодиями и звуком с каждым последующим альбомом. Они самые успешные и востребованные представители альтернативной сцены. Существуя с 1999 года, группа продала более 50 миллионов копий альбомов и дважды удостоилась награды Грэмми. Группа обрела успех благодаря дебютному альбому под названием «Hybrid Theory», проданному тиражом в 10 миллионов копий, в результате чего в 2005 году он обрёл «бриллиантовый» статус, присуждаемый RIAA. Следующий студийный альбом, Meteora, повторил успех предыдущего, лидируя в 2003 году, в чарте Billboard Top 200. Деньги, полученные от продаж этого альбома, группа использовала в благотворительных целях во всем мире.- Состав группы:
-Честер Беннингтон (Chester Bennington) — вокал
-Майк Шинода (Mike Shinoda) — вокал, MC, клавишные, ритм-гитара
-Брэд Делсон (Brad Delson) — гитара
-Джо Хан (Joe Hahn) — диджей
-Дэйв Фаррелл (Dave Farrell) — бас-гитара
-Роб Бурдон (Rob Bourdon) — ударные
-

Факты:

- А вы знаете, что большую часть денег, от концертов, Linkin Park тратят на благотворительность?-Иллюстрации и обложку дебютного альбома Linkin Park выполнял Майк Шинода. А у Честера Беннингтона есть татуировка на ноге — точная копия обложки альбома Hybrid Theory.
До создания группы «Hybrid Theory» в 1996 году, Брэд, Джо, Роб и Майк играли вместе в группе под названием «Xero».
«Hybrid Theory» поменяли название на «Linkin Park», что бы избежать судебного разбирательства с группой под названием «Hybrid».
На Майка Шиноду огромное влияние оказали «The Deftones», «The Roots», «Nine Inch Nails».
Песня «Cure For The Itch» раньше называлась в честь ее создателя, Джо Хана — «Mr. Hahn».
Любимая песня Майка на альбоме Hybrid Theory — «Papercut», а Роба — «In The End». Честер утверждал, что ему тоже нравится «Papercut», и на вопрос почему он ответил: «Ее просто легче всего исполнять».
Четверо участников группы учились в той же школе, что и члены группы «Vent».
Видео «One Step Closer» было снято в подземной шахте. Кроме того, деньги на выпуск этого сингла были позаимствованы группой у своих фанов.
Первый концерт, на котором побывал Брэд, был концерт «Beach Boys» в Чикаго.
На вопрос о том, почему Брэд носит наушники во время концерта, он всегда отвечает: «Если я скажу, то мне придется тебя убить».
Марк, который когда-то был также участником «Xero», сейчас является менеджером «Taproot».
Linkin Park — одна из любимых групп Ильи Медведева, сына Президента России Дмитрия Медведева. При подведении итогов 2009 года в прямом эфире, состоявшемся 24 декабря 2009 года, президент сказал, что сам иногда слушает Linkin Park.
Linkin Park чрезвычайно популярны в Японии, многие японские нью-метал группы пытаются подражать их звучанию, например Eight.
В просторах Всемирной паутины можно найти песню Bullet With Your Name, которую исполняют якобы Staind и Linkin Park (а в некоторых случаях — Godsmack, Linkin Park, Disturbed, Pantera, Limp Bizkit, Tool, Staind и Korn). На самом деле эта песня — творчество группы Scars Of Life. Просто у Scars Of Life есть две версии этой песни — альбомная и версия с EP «Mute» (2001). Вторую как раз принимают за творчество Staind и Linkin Park.
Брэд любит называть свою гитару Ibanez «Дьяволом».
Режиссёр клипа «One Step Closer» Грегори Дарк — раньше снимал порно-фильмы.
В клипе на песню «Somewhere I Belong» присутствуют фигурки роботов из аниме Gundam.
До того как группа была названа Linkin Park, обсуждались и другие названия, например:
‘Clear’ — одно из самых любимых и более вероятных
‘Probing Lagers’ — по мнению группы — самое тупое
‘Platinum Lotus Foundation’ — no comments
Однажды Честер пошутил, что они почти что назвали группу ‘Ten PM Stocker’, потому то записывали альбом и репетировали каждый вечер в 10 часов в доме на Stocker Street.
Прежние названия песен:
‘Don’t Stay’ — раньше назывался ‘Sick’
‘Breaking the Habit’ — раньше назывался ‘Drawing’
‘In the End’ — раньше назывался ‘Untitled’
‘Vertical Limit’ — эта песня специально записывалась для одного фильма
‘Forgotten’ — раньше назывался ‘Rhinestone’
‘One Step Closer’ — раньше назывался ‘Plaster’
‘Cure for the Itch’ — раньше назывался ‘Mr. Hahn’
‘Esaul’ — ранняя версия ‘A Place for My Head’
‘Esaul’ — это мужское имя, он друг группы, у которого они временно жили и очень часто с ним встречались.
‘Super Xero’ — ранняя версия ‘By Myself’
‘My December’ был записан в Нэшвиле (Nashville).
‘One Step Closer’ был написан после того, как LP провели 2 недели, пытаясь записать «Runaway» и ничего не сделали, так что они стали записывать песню, которую давно рассматривали — OSC.
‘The Morning After’ была открыта на Brixton Academy, Лондонском (4 июня, 01) шоу, где Честер исполнил акустическое соло новой песни. Честер говорит, что это песня о сне в машине.
Что значит иллюстрация на обложке альбома «Hybrid Theory»? Солдат обозначает тяжелые гитарные партии и напряженный мощный вокал, а крылья бабочки у солдата за спиной представляют спокойную сторону группы: медленный мелодичный бит, местами нежный вокал, глубокую лирику. Проще говоря, такой обложкой своего дебютного альбома группа попыталась сказать, что они не просто рэп/рок команда, а полностью новое направление в сегодняшней музыке.
Для окраски волос Linkin Park используют Special Fx и Fudge.
Хоть у Бреда волосы и нормальноального цвета, он красил свои волосы в пурпурный (в школе).
Волосы Честера были выкрашены в белый, темно-коричневый, красный, розовый,пурпурный и др. Стиль его волос тоже постоянно менялся. Он был кудрявым, «шипастым», ставил себе «рога», иракез и даже брился почти налысо.
Натуральный цвет волос Майка — черный. Когда Майк хочет покрасить волосы в красный цвет, то он сначала обесцвечивается, а потом красит волосы в красный цвет при помощи краски для волос — «Ruby Red» и чуть-чуть «Rock Star Red».
В фильме «Сумерки» в титрах играет песня «Leave Out All The Rest».
В фильме «S.W.A.T.: Спецназ города ангелов» играет песня «Figure 09».
В фильме «Полиция Майами. Отдел нравов» звучит совместная песня Jay-Z и Linkin Park «Numb/Encore».
В фильме «Матрица: Перезагрузка» в титрах играет песня «Session».
24 сентября 2010 года на iPhone вышла игра Linkin Park Revenge в стиле Guitar Hero.
Второй альбом Linkin Park получил свое название в честь древнегреческого города Meteora. Он представляет собой комплекс храмов, стоящих на вершине отдельных гор, таким образом оттуда открывается потрясающий вид на окружающую местность. Сами парни говорят, что не стоит из-за такого названия воспринимать альбом как религиозный, а считать название за метафору, ведь в своей второй работе группа попыталась передать такие качества Meteora, как величие и вечность.

Тех. данные

- -

Bleed it out

*** DIRECTSHOW FILTER LIST ***
1. Default DirectSound Device
2. VMR9 - Renderless mode
3. Gretech Audio
4. Gretech Video
5. MP3 Decoder DMO
6. AVI Splitter
7. Gretech File Stream
8.Bit Rate:526 Kbps
*** VIDEO INFO ***
Input Type : XVID(GVC)
Input Size : 640 x 328
Output Type : YUY2
Output Size : 640 x 328
FrameRate(Frame/sec) : 0.00 (23.98)
*** AUDIO INFO ***
SampleRate(Sample/sec) : 44100
BitRate(Bit/sample) : 16
Channels : 2
KBitRate(KBit/sec) : 128

Breaking the habbit

*** DIRECTSHOW FILTER LIST ***
1. Default DirectSound Device
2. VMR9 - Renderless mode
3. Gretech Audio
4. Gretech Video
5. MP3 Decoder DMO
6. AVI Splitter
7. Gretech File Stream
8.Bit Rate: 1 381 Kbps
*** VIDEO INFO ***
Input Type : XVID(GVC)
Input Size : 352 x 288
Output Type : YUY2
Output Size : 352 x 288
FrameRate(Frame/sec) : 0.00 (25.00)
*** AUDIO INFO ***
SampleRate(Sample/sec) : 44100
BitRate(Bit/sample) : 16
Channels : 2
KBitRate(KBit/sec) : 128

Burn It Down

*** DIRECTSHOW FILTER LIST ***
1. Default DirectSound Device
2. VMR9 - Renderless mode
3. Gretech Audio
4. Gretech Video
5. MP3 Decoder DMO
6. AVI Splitter
7. Gretech File Stream
8.Bit Rate:7417 Kbps
*** VIDEO INFO ***
Input Type : XVID(GVC)
Input Size : 1920 x 824
Output Type : YUY2
Output Size : 1920 x 824
FrameRate(Frame/sec) : 0.00 (24.42)
*** AUDIO INFO ***
SampleRate(Sample/sec) : 44100
BitRate(Bit/sample) : 16
Channels : 2
KBitRate(KBit/sec) : 128

Burning In The Skies

*** DIRECTSHOW FILTER LIST ***
1. Default DirectSound Device
2. VMR9 - Renderless mode
3. Gretech Audio
4. Gretech Video
5. MP3 Decoder DMO
6. AVI Splitter
7. Gretech File Stream
8.Bit Rate:896 Kbps
*** VIDEO INFO ***
Input Type : XVID(GVC)
Input Size : 640 x 480
Output Type : YUY2
Output Size : 640 x 480
FrameRate(Frame/sec) : 217.39 (29.97)
*** AUDIO INFO ***
SampleRate(Sample/sec) : 44100
BitRate(Bit/sample) : 16
Channels : 2
KBitRate(KBit/sec) : 128

Busta Rhymes ft Linkin Park-We made it

*** DIRECTSHOW FILTER LIST ***
1. Default DirectSound Device
2. VMR9 - Renderless mode
3. Gretech Audio
4. Gretech Video
5. MP3 Decoder DMO
6. AVI Splitter
7. Gretech File Stream
8.Bit Rate:1114 Kbps
*** VIDEO INFO ***
Input Type : XVID(GVC)
Input Size : 640 x 272
Output Type : YUY2
Output Size : 640 x 272
FrameRate(Frame/sec) : 0.00 (23.98)
*** AUDIO INFO ***
SampleRate(Sample/sec) : 44100
BitRate(Bit/sample) : 16
Channels : 2
KBitRate(KBit/sec) : 201

Catalyst

*** DIRECTSHOW FILTER LIST ***
1. Default DirectSound Device
2. VMR9 - Renderless mode
3. Gretech Audio
4. Gretech Video
5. MP3 Decoder DMO
6. AVI Splitter
7. Gretech File Stream
8.Bit Rate:3451 Kbps
*** VIDEO INFO ***
Input Type : XVID(GVC)
Input Size : 1920 x 704
Output Type : YUY2
Output Size : 1920 x 704
FrameRate(Frame/sec) : 72.99 (23.98)
*** AUDIO INFO ***
SampleRate(Sample/sec) : 44100
BitRate(Bit/sample) : 16
Channels : 2
KBitRate(KBit/sec) : 128

crawling

*** DIRECTSHOW FILTER LIST ***
1. Default DirectSound Device
2. VMR9 - Renderless mode
3. Gretech Audio
4. Gretech Video
5. MP3 Decoder DMO
6. AVI Splitter
7. Gretech File Stream
8.Bit Rate:492 Kbps
*** VIDEO INFO ***
Input Type : XVID(GVC)
Input Size : 320 x 240
Output Type : YUY2
Output Size : 320 x 240
FrameRate(Frame/sec) : 0.00 (29.97)
*** AUDIO INFO ***
SampleRate(Sample/sec) : 44100
BitRate(Bit/sample) : 16
Channels : 2
KBitRate(KBit/sec) : 128

Faint

*** DIRECTSHOW FILTER LIST ***
1. Default DirectSound Device
2. VMR9 - Renderless mode
3. Gretech Audio
4. Gretech Video
5. MP3 Decoder DMO
6. AVI Splitter
7. Gretech File Stream
8.Bit Rate:559 Kbps
*** VIDEO INFO ***
Input Type : XVID(GVC)
Input Size : 352 x 240
Output Type : YUY2
Output Size : 352 x 240
FrameRate(Frame/sec) : 80.65 (29.97)
*** AUDIO INFO ***
SampleRate(Sample/sec) : 44100
BitRate(Bit/sample) : 16
Channels : 2
KBitRate(KBit/sec) : 128

Frgt_10

*** DIRECTSHOW FILTER LIST ***
1. Default DirectSound Device
2. VMR9 - Renderless mode
3. Gretech Audio
4. Gretech Video
5. MP3 Decoder DMO
6. AVI Splitter
7. Gretech File Stream
8.Bit Rate:229 Kbps
*** VIDEO INFO ***
Input Type : XVID(GVC)
Input Size : 352 x 288
Output Type : YUY2
Output Size : 352 x 288
FrameRate(Frame/sec) : 0.00 (25.00)
*** AUDIO INFO ***
SampleRate(Sample/sec) : 44100
BitRate(Bit/sample) : 16
Channels : 2
KBitRate(KBit/sec) : 128

From the Inside

*** DIRECTSHOW FILTER LIST ***
1. Default DirectSound Device
2. VMR9 - Renderless mode
3. Gretech Audio
4. Gretech Video
5. MP3 Decoder DMO
6. AVI Splitter
7. Gretech File Stream
8.Bit Rate:669 Kbps
*** VIDEO INFO ***
Input Type : XVID(GVC)
Input Size : 352 x 288
Output Type : YUY2
Output Size : 352 x 288
FrameRate(Frame/sec) : 0.00 (25.00)
*** AUDIO INFO ***
SampleRate(Sample/sec) : 44100
BitRate(Bit/sample) : 16
Channels : 2
KBitRate(KBit/sec) : 128

Given Up

*** DIRECTSHOW FILTER LIST ***
1. Default DirectSound Device
2. VMR9 - Renderless mode
3. Gretech Audio
4. Gretech Video
5. MP3 Decoder DMO
6. AVI Splitter
7. Gretech File Stream
8.Bit Rate:3054 Kbps
*** VIDEO INFO ***
Input Type : XVID(GVC)
Input Size : 704 x 384
Output Type : YUY2
Output Size : 704 x 384
FrameRate(Frame/sec) : 192.31 (23.98)
*** AUDIO INFO ***
SampleRate(Sample/sec) : 44100
BitRate(Bit/sample) : 16
Channels : 2
KBitRate(KBit/sec) : 227

In the End

*** DIRECTSHOW FILTER LIST ***
1. Default DirectSound Device
2. VMR9 - Renderless mode
3. Gretech Audio
4. Gretech Video
5. MP3 Decoder DMO
6. AVI Splitter
7. Gretech File Stream
8.Bit Rate:659 Kbps
*** VIDEO INFO ***
Input Type : XVID(GVC)
Input Size : 352 x 288
Output Type : YUY2
Output Size : 352 x 288
FrameRate(Frame/sec) : 0.00 (25.00)
*** AUDIO INFO ***
SampleRate(Sample/sec) : 44100
BitRate(Bit/sample) : 16
Channels : 2
KBitRate(KBit/sec) : 128

Iridescent

*** DIRECTSHOW FILTER LIST ***
1. VMR9 - Renderless mode
2. Gretech Video
3. Gretech MP4 Source
*** VIDEO INFO ***
Input Type : AVC1(GVC)
Input Size : 1280 x 720
Output Type : YUY2
Output Size : 1280 x 720
FrameRate(Frame/sec) : 28.49 (23.98)

Leave Out All The Rest

*** DIRECTSHOW FILTER LIST ***
1. Default DirectSound Device
2. VMR9 - Renderless mode
3. Gretech Audio
4. Gretech Video
5. MP3 Decoder DMO
6. AVI Splitter
7. Gretech File Stream
8.Bit Rate:2114 Kbps
*** VIDEO INFO ***
Input Type : XVID(GVC)
Input Size : 688 x 288
Output Type : YUY2
Output Size : 688 x 288
FrameRate(Frame/sec) : 0.00 (23.98)
*** AUDIO INFO ***
SampleRate(Sample/sec) : 44100
BitRate(Bit/sample) : 16
Channels : 2
KBitRate(KBit/sec) : 128

Powerless

*** DIRECTSHOW FILTER LIST ***
1. VMR9 - Renderless mode
2. Gretech Video
3. Gretech MP4 Source
*** VIDEO INFO ***
Input Type : AVC1(GVC)
Input Size : 1920 x 1080
Output Type : YUY2
Output Size : 1920 x 1080
FrameRate(Frame/sec) : 56.82 (24.00)

Shadow Of The Day

*** DIRECTSHOW FILTER LIST ***
1. Default DirectSound Device
2. VMR9 - Renderless mode
3. Gretech Audio
4. Gretech Video
5. MP3 Decoder DMO
6. AVI Splitter
7. Gretech File Stream
8.Bit Rate:2148 Kbps
*** VIDEO INFO ***
Input Type : DX50(GVC)
Input Size : 720 x 576
Output Type : YUY2
Output Size : 720 x 576
FrameRate(Frame/sec) : 0.00 (25.00)
*** AUDIO INFO ***
SampleRate(Sample/sec) : 48000
BitRate(Bit/sample) : 16
Channels : 2
KBitRate(KBit/sec) : 128

New Divide

*** DIRECTSHOW FILTER LIST ***
1. Default DirectSound Device
2. VMR9 - Renderless mode
3. Gretech Audio
4. Gretech Video
5. MP3 Decoder DMO
6. AVI Splitter
7. Gretech File Stream
8.Bit Rate:1419 Kbps
*** VIDEO INFO ***
Input Type : XVID(GVC)
Input Size : 720 x 304
Output Type : YUY2
Output Size : 720 x 304
FrameRate(Frame/sec) : 30.96 (23.98)
*** AUDIO INFO ***
SampleRate(Sample/sec) : 44100
BitRate(Bit/sample) : 16
Channels : 2
KBitRate(KBit/sec) : 128

Not Alone

*** DIRECTSHOW FILTER LIST ***
1. Default DirectSound Device
2. VMR9 - Renderless mode
3. Gretech Audio
4. Gretech Video
5. MP3 Decoder DMO
6. AVI Splitter
7. Gretech File Stream
8.Bit Rate:5605 Kbps
*** VIDEO INFO ***
Input Type : XVID(GVC)
Input Size : 1280 x 720
Output Type : YUY2
Output Size : 1280 x 720
FrameRate(Frame/sec) : 163.93 (29.97)
*** AUDIO INFO ***
SampleRate(Sample/sec) : 44100
BitRate(Bit/sample) : 16
Channels : 2
KBitRate(KBit/sec) : 128

Numb

*** DIRECTSHOW FILTER LIST ***
1. Default DirectSound Device
2. VMR9 - Renderless mode
3. Gretech Audio
4. Gretech Video
5. MP3 Decoder DMO
6. AVI Splitter
7. Gretech File Stream
8.Bit Rate:674 Kbps
*** VIDEO INFO ***
Input Type : XVID(GVC)
Input Size : 352 x 288
Output Type : YUY2
Output Size : 352 x 288
FrameRate(Frame/sec) : 36.50 (25.00)
*** AUDIO INFO ***
SampleRate(Sample/sec) : 44100
BitRate(Bit/sample) : 16
Channels : 2
KBitRate(KBit/sec) : 128

one step closer

*** DIRECTSHOW FILTER LIST ***
1. Default DirectSound Device
2. VMR9 - Renderless mode
3. Gretech Audio
4. Gretech Video
5. MP3 Decoder DMO
6. AVI Splitter
7. Gretech File Stream
8.Bit Rate:501 Kbps
*** VIDEO INFO ***
Input Type : XVID(GVC)
Input Size : 320 x 240
Output Type : YUY2
Output Size : 320 x 240
FrameRate(Frame/sec) : 42.19 (29.97)
*** AUDIO INFO ***
SampleRate(Sample/sec) : 44100
BitRate(Bit/sample) : 16
Channels : 2
KBitRate(KBit/sec) : 128

Papercut

*** DIRECTSHOW FILTER LIST ***
1. Default DirectSound Device
2. VMR9 - Renderless mode
3. Gretech Audio
4. Gretech Video
5. MP3 Decoder DMO
6. AVI Splitter
7. Gretech File Stream
8.Bit Rate:668 Kbps
*** VIDEO INFO ***
Input Type : XVID(GVC)
Input Size : 352 x 288
Output Type : YUY2
Output Size : 352 x 288
FrameRate(Frame/sec) : 40.00 (25.00)
*** AUDIO INFO ***
SampleRate(Sample/sec) : 44100
BitRate(Bit/sample) : 16
Channels : 2
KBitRate(KBit/sec) : 128

Points Of Authority

*** DIRECTSHOW FILTER LIST ***
1. Default DirectSound Device
2. VMR9 - Renderless mode
3. Gretech Audio
4. Gretech Video
5. MP3 Decoder DMO
6. AVI Splitter
7. Gretech File Stream
8.Bit Rate:666 Kbps
*** VIDEO INFO ***
Input Type : XVID(GVC)
Input Size : 352 x 288
Output Type : YUY2
Output Size : 352 x 288
FrameRate(Frame/sec) : 0.00 (25.00)
*** AUDIO INFO ***
SampleRate(Sample/sec) : 44100
BitRate(Bit/sample) : 16
Channels : 2
KBitRate(KBit/sec) : 128

Somewhere I Belong

*** DIRECTSHOW FILTER LIST ***
1. Default DirectSound Device
2. VMR9 - Renderless mode
3. Gretech Audio
4. Gretech Video
5. MP3 Decoder DMO
6. AVI Splitter
7. Gretech File Stream
8.Bit Rate: 545 Kbps
*** VIDEO INFO ***
Input Type : XVID(GVC)
Input Size : 352 x 240
Output Type : YUY2
Output Size : 352 x 240
FrameRate(Frame/sec) : 212.77 (29.97)
*** AUDIO INFO ***
SampleRate(Sample/sec) : 44100
BitRate(Bit/sample) : 16
Channels : 2
KBitRate(KBit/sec) : 128

Waiting for the end

*** DIRECTSHOW FILTER LIST ***
1. Default DirectSound Device
2. VMR9 - Renderless mode
3. Gretech Audio
4. Gretech Video
5. MP3 Decoder DMO
6. AVI Splitter
7. Gretech File Stream
8.Bit Rate:849 Kbps
*** VIDEO INFO ***
Input Type : XVID(GVC)
Input Size : 480 x 270
Output Type : YUY2
Output Size : 480 x 270
FrameRate(Frame/sec) : 0.00 (24.00)
*** AUDIO INFO ***
SampleRate(Sample/sec) : 44100
BitRate(Bit/sample) : 16
Channels : 2
KBitRate(KBit/sec) : 128

What Ive Done.

*** DIRECTSHOW FILTER LIST ***
1. Default DirectSound Device
2. VMR9 - Renderless mode
3. Gretech Audio
4. Gretech Video
5. MP3 Decoder DMO
6. AVI Splitter
7. Gretech File Stream
8.Bit Rate:1579 Kbps
*** VIDEO INFO ***
Input Type : XVID(GVC)
Input Size : 640 x 272
Output Type : YUY2
Output Size : 640 x 272
FrameRate(Frame/sec) : 212.77 (23.98)
*** AUDIO INFO ***
SampleRate(Sample/sec) : 44100
BitRate(Bit/sample) : 16
Channels : 2
KBitRate(KBit/sec) : 191

Castle of Glases

*** DIRECTSHOW FILTER LIST ***
1. Default DirectSound Device
2. VMR9 - Renderless mode
3. Gretech Audio
4. Gretech Video
5. MP3 Decoder DMO
6. AVI Splitter
7. Gretech File Stream
8.Bit Rate:7417 Kbps
*** VIDEO INFO ***
Input Type : XVID(GVC)
Input Size : 856x480
Output Type : YUY2
Output Size : 856x480
FrameRate(Frame/sec) : 0.00 (24.42)
*** AUDIO INFO ***
SampleRate(Sample/sec) : 44100
BitRate(Bit/sample) : 16
Channels : 2
KBitRate(KBit/sec) : 128

Kyur4 Th Ich

D:\My Music\Linkin Park\Klip\Kyur4 Th Ich.avi
General
Complete name : D:\My Music\Linkin Park\Klip\Kyur4 Th Ich.avi
Format : AVI
Format/Info : Audio Video Interleave
File size : 60.1 MiB
Duration : 2mn 33s
Overall bit rate : 3 278 Kbps
Writing application : VirtualDubMod 1.5.10.2 (build 2540/release)
Writing library : VirtualDubMod build 2540/release
Video #0
ID : 0
Format : MPEG-4 Visual
Format profile : Advanced [email protected]
Format settings, BVOP : 1
Format settings, QPel : No
Format settings, GMC : No warppoints
Format settings, Matrix : Custom
Codec ID : XVID
Codec ID/Hint : XviD
Duration : 2mn 33s
Bit rate : 2 624 Kbps
Width : 704 pixels
Height : 400 pixels
Display aspect ratio : 16:9
Frame rate : 23.976 fps
Color space : YUV
Chroma subsampling : 4:2:0
Bit depth : 8 bits
Scan type : Progressive
Compression mode : Lossy
Bits/(Pixel*Frame) : 0.389
Stream size : 48.1 MiB (80%)
Writing library : XviD 1.2.0.dev47 (UTC 2006-11-01)
Audio #1
ID : 1
Format : MPEG Audio
Format version : Version 1
Format profile : Layer 3
Mode : Joint stereo
Mode extension : MS Stereo
Codec ID : 55
Codec ID/Hint : MP3
Duration : 2mn 33s
Bit rate mode : Constant
Bit rate : 192 Kbps
Channel(s) : 2 channels
Sampling rate : 48.0 KHz
Compression mode : Lossy
Stream size : 3.52 MiB (6%)
Alignment : Aligned on interleaves
Interleave, duration : 42 ms (1.00 video frame)
Interleave, preload duration : 504 ms
Audio #2
ID : 2
Format : AC-3
Format/Info : Audio Coding 3
Mode extension : CM (complete main)
Format settings, Endianness : Big
Codec ID : 2000
Duration : 2mn 33s
Bit rate mode : Constant
Bit rate : 448 Kbps
Channel(s) : 6 channels
Channel positions : Front: L C R, Side: L R, LFE
Sampling rate : 48.0 KHz
Bit depth : 16 bits
Compression mode : Lossy
Delay relative to video : 28ms
Stream size : 8.21 MiB (14%)
Alignment : Split accross interleaves
Interleave, duration : 42 ms (1.00 video frame)
Interleave, preload duration : 500 ms

2000-2014

D:\My Music\Linkin Park\Klip\2000 -2014.avi
General
Complete name : D:\My Music\Linkin Park\Klip\2000 -2014.avi
Format : AVI
Format/Info : Audio Video Interleave
File size : 289 MiB
Duration : 8mn 22s
Overall bit rate : 4 824 Kbps
Writing application : MEncoder SVN-r33883(20110719-gcc4.5.2)
Writing library : MPlayer
Video #0
ID : 0
Format : MPEG-4 Visual
Format profile : Advanced [email protected]
Format settings, BVOP : 2
Format settings, QPel : No
Format settings, GMC : No warppoints
Format settings, Matrix : Default (H.263)
Codec ID : XVID
Codec ID/Hint : XviD
Duration : 8mn 22s
Bit rate : 4 685 Kbps
Width : 1 920 pixels
Height : 1 080 pixels
Display aspect ratio : 16:9
Frame rate : 25.000 fps
Color space : YUV
Chroma subsampling : 4:2:0
Bit depth : 8 bits
Scan type : Progressive
Compression mode : Lossy
Bits/(Pixel*Frame) : 0.090
Stream size : 281 MiB (97%)
Writing library : XviD 1.2.1 (UTC 2008-12-04)
Audio #1
ID : 1
Format : MPEG Audio
Format version : Version 1
Format profile : Layer 3
Mode : Joint stereo
Mode extension : MS Stereo
Codec ID : 55
Codec ID/Hint : MP3
Duration : 8mn 22s
Bit rate mode : Constant
Bit rate : 128 Kbps
Channel(s) : 2 channels
Sampling rate : 44.1 KHz
Compression mode : Lossy
Delay relative to video : 40ms
Stream size : 7.67 MiB (3%)
Alignment : Aligned on interleaves
Interleave, duration : 26 ms (0.65 video frame)
Interleave, preload duration : 522 ms
Writing library : LAME3.98.4

A Light That Never Comes (ft. Steve Aoki)

D:\My Music\Linkin Park\Klip\A Light That Never Comes (ft. Steve Aoki).avi
General
Complete name : D:\My Music\Linkin Park\Klip\A Light That Never Comes (ft. Steve Aoki).avi
Format : AVI
Format/Info : Audio Video Interleave
File size : 43.3 MiB
Duration : 4mn 38s
Overall bit rate : 1 303 Kbps
Writing application : MEncoder SVN-r33883(20110719-gcc4.5.2)
Writing library : MPlayer
Video #0
ID : 0
Format : MPEG-4 Visual
Format profile : Advanced [email protected]
Format settings, BVOP : 2
Format settings, QPel : No
Format settings, GMC : No warppoints
Format settings, Matrix : Default (H.263)
Codec ID : XVID
Codec ID/Hint : XviD
Duration : 4mn 38s
Bit rate : 1 163 Kbps
Width : 640 pixels
Height : 360 pixels
Display aspect ratio : 16:9
Frame rate : 25.000 fps
Color space : YUV
Chroma subsampling : 4:2:0
Bit depth : 8 bits
Scan type : Progressive
Compression mode : Lossy
Bits/(Pixel*Frame) : 0.202
Stream size : 38.7 MiB (89%)
Writing library : XviD 1.2.1 (UTC 2008-12-04)
Audio #1
ID : 1
Format : MPEG Audio
Format version : Version 1
Format profile : Layer 3
Mode : Joint stereo
Mode extension : MS Stereo
Codec ID : 55
Codec ID/Hint : MP3
Duration : 4mn 38s
Bit rate mode : Constant
Bit rate : 128 Kbps
Channel(s) : 2 channels
Sampling rate : 44.1 KHz
Compression mode : Lossy
Delay relative to video : 40ms
Stream size : 4.26 MiB (10%)
Alignment : Aligned on interleaves
Interleave, duration : 26 ms (0.65 video frame)
Interleave, preload duration : 522 ms
Writing library : LAME3.98.4

Enth E Nd

D:\My Music\Linkin Park\Klip\Enth E Nd.avi
General
Complete name : D:\My Music\Linkin Park\Klip\Enth E Nd.avi
Format : AVI
Format/Info : Audio Video Interleave
File size : 73.6 MiB
Duration : 4mn 4s
Overall bit rate : 2 522 Kbps
Video #0
ID : 0
Format : MPEG-4 Visual
Format profile : Advanced [email protected]
Format settings, BVOP : 2
Format settings, QPel : No
Format settings, GMC : No warppoints
Format settings, Matrix : Default (H.263)
Codec ID : XVID
Codec ID/Hint : XviD
Duration : 4mn 4s
Bit rate : 2 252 Kbps
Width : 704 pixels
Height : 464 pixels
Display aspect ratio : 4:3
Frame rate : 29.970 fps
Color space : YUV
Chroma subsampling : 4:2:0
Bit depth : 8 bits
Scan type : Progressive
Compression mode : Lossy
Bits/(Pixel*Frame) : 0.230
Stream size : 65.7 MiB (89%)
Writing library : XviD 1.2.1 (UTC 2008-12-04)
Audio #1
ID : 1
Format : MPEG Audio
Format version : Version 1
Format profile : Layer 3
Mode : Joint stereo
Mode extension : MS Stereo
Codec ID : 55
Codec ID/Hint : MP3
Duration : 4mn 4s
Bit rate mode : Constant
Bit rate : 256 Kbps
Channel(s) : 2 channels
Sampling rate : 48.0 KHz
Compression mode : Lossy
Stream size : 7.47 MiB (10%)
Alignment : Aligned on interleaves
Interleave, duration : 24 ms (0.72 video frame)
Interleave, preload duration : 192 ms
Writing library : LAME3.98r
Encoding settings : -m j -V 4 -q 2 -lowpass 19.7

It's Goin' Down

D:\My Music\Linkin Park\Klip\It's Goin' Down.avi
General
Complete name : D:\My Music\Linkin Park\Klip\It's Goin' Down.avi
Format : AVI
Format/Info : Audio Video Interleave
File size : 48.4 MiB
Duration : 3mn 55s
Overall bit rate : 1 721 Kbps
Writing application : MEncoder SVN-r30881(20100311-gcc4.3.3)
Writing library : MPlayer
Video #0
ID : 0
Format : MPEG-4 Visual
Format profile : Advanced [email protected]
Format settings, BVOP : 2
Format settings, QPel : No
Format settings, GMC : No warppoints
Format settings, Matrix : Default (H.263)
Codec ID : XVID
Codec ID/Hint : XviD
Duration : 3mn 55s
Bit rate : 1 581 Kbps
Width : 640 pixels
Height : 480 pixels
Display aspect ratio : 4:3
Frame rate : 29.970 fps
Color space : YUV
Chroma subsampling : 4:2:0
Bit depth : 8 bits
Scan type : Progressive
Compression mode : Lossy
Bits/(Pixel*Frame) : 0.172
Stream size : 44.4 MiB (92%)
Writing library : XviD 1.2.1 (UTC 2008-12-04)
Audio #1
ID : 1
Format : MPEG Audio
Format version : Version 1
Format profile : Layer 3
Mode : Joint stereo
Mode extension : MS Stereo
Codec ID : 55
Codec ID/Hint : MP3
Duration : 3mn 55s
Bit rate mode : Constant
Bit rate : 128 Kbps
Channel(s) : 2 channels
Sampling rate : 44.1 KHz
Compression mode : Lossy
Delay relative to video : 33ms
Stream size : 3.60 MiB (7%)
Alignment : Aligned on interleaves
Interleave, duration : 26 ms (0.78 video frame)
Interleave, preload duration : 522 ms

Kyur4 Th Ich

D:\My Music\Linkin Park\Klip\Kyur4 Th Ich.avi
General
Complete name : D:\My Music\Linkin Park\Klip\Kyur4 Th Ich.avi
Format : AVI
Format/Info : Audio Video Interleave
File size : 60.1 MiB
Duration : 2mn 33s
Overall bit rate : 3 278 Kbps
Writing application : VirtualDubMod 1.5.10.2 (build 2540/release)
Writing library : VirtualDubMod build 2540/release
Video #0
ID : 0
Format : MPEG-4 Visual
Format profile : Advanced [email protected]
Format settings, BVOP : 1
Format settings, QPel : No
Format settings, GMC : No warppoints
Format settings, Matrix : Custom
Codec ID : XVID
Codec ID/Hint : XviD
Duration : 2mn 33s
Bit rate : 2 624 Kbps
Width : 704 pixels
Height : 400 pixels
Display aspect ratio : 16:9
Frame rate : 23.976 fps
Color space : YUV
Chroma subsampling : 4:2:0
Bit depth : 8 bits
Scan type : Progressive
Compression mode : Lossy
Bits/(Pixel*Frame) : 0.389
Stream size : 48.1 MiB (80%)
Writing library : XviD 1.2.0.dev47 (UTC 2006-11-01)
Audio #1
ID : 1
Format : MPEG Audio
Format version : Version 1
Format profile : Layer 3
Mode : Joint stereo
Mode extension : MS Stereo
Codec ID : 55
Codec ID/Hint : MP3
Duration : 2mn 33s
Bit rate mode : Constant
Bit rate : 192 Kbps
Channel(s) : 2 channels
Sampling rate : 48.0 KHz
Compression mode : Lossy
Stream size : 3.52 MiB (6%)
Alignment : Aligned on interleaves
Interleave, duration : 42 ms (1.00 video frame)
Interleave, preload duration : 504 ms
Audio #2
ID : 2
Format : AC-3
Format/Info : Audio Coding 3
Mode extension : CM (complete main)
Format settings, Endianness : Big
Codec ID : 2000
Duration : 2mn 33s
Bit rate mode : Constant
Bit rate : 448 Kbps
Channel(s) : 6 channels
Channel positions : Front: L C R, Side: L R, LFE
Sampling rate : 48.0 KHz
Bit depth : 16 bits
Compression mode : Lossy
Delay relative to video : 28ms
Stream size : 8.21 MiB (14%)
Alignment : Split accross interleaves
Interleave, duration : 42 ms (1.00 video frame)
Interleave, preload duration : 500 ms

Let-Down

D:\My Music\Linkin Park\Klip\Let-Down.avi
General
Complete name : D:\My Music\Linkin Park\Klip\Let-Down.avi
Format : AVI
Format/Info : Audio Video Interleave
File size : 58.4 MiB
Duration : 3mn 57s
Overall bit rate : 2 067 Kbps
Writing application : MEncoder SVN-r33883(20110719-gcc4.5.2)
Writing library : MPlayer
Video #0
ID : 0
Format : MPEG-4 Visual
Format profile : Advanced [email protected]
Format settings, BVOP : 2
Format settings, QPel : No
Format settings, GMC : No warppoints
Format settings, Matrix : Default (H.263)
Codec ID : XVID
Codec ID/Hint : XviD
Duration : 3mn 57s
Bit rate : 1 927 Kbps
Width : 856 pixels
Height : 480 pixels
Display aspect ratio : 16:9
Original display aspect ratio : 16:9
Frame rate : 24.000 fps
Color space : YUV
Chroma subsampling : 4:2:0
Bit depth : 8 bits
Scan type : Progressive
Compression mode : Lossy
Bits/(Pixel*Frame) : 0.195
Stream size : 54.5 MiB (93%)
Writing library : XviD 1.2.1 (UTC 2008-12-04)
Audio #1
ID : 1
Format : MPEG Audio
Format version : Version 1
Format profile : Layer 3
Mode : Joint stereo
Mode extension : MS Stereo
Codec ID : 55
Codec ID/Hint : MP3
Duration : 3mn 57s
Bit rate mode : Constant
Bit rate : 128 Kbps
Channel(s) : 2 channels
Sampling rate : 44.1 KHz
Compression mode : Lossy
Delay relative to video : 42ms
Stream size : 3.62 MiB (6%)
Alignment : Aligned on interleaves
Interleave, duration : 26 ms (0.63 video frame)
Interleave, preload duration : 522 ms
Writing library : LAME3.98.4

Numb - Encore(ft. Jay-Z)

D:\My Music\Linkin Park\Klip\Numb - Encore(ft. Jay-Z).avi
General
Complete name : D:\My Music\Linkin Park\Klip\Numb - Encore(ft. Jay-Z).avi
Format : AVI
Format/Info : Audio Video Interleave
File size : 47.2 MiB
Duration : 3mn 56s
Overall bit rate : 1 673 Kbps
Writing application : MEncoder SVN-r33883(20110719-gcc4.5.2)
Writing library : MPlayer
Video #0
ID : 0
Format : MPEG-4 Visual
Format profile : Advanced [email protected]
Format settings, BVOP : 2
Format settings, QPel : No
Format settings, GMC : No warppoints
Format settings, Matrix : Default (H.263)
Codec ID : XVID
Codec ID/Hint : XviD
Duration : 3mn 56s
Bit rate : 1 532 Kbps
Width : 640 pixels
Height : 360 pixels
Display aspect ratio : 16:9
Frame rate : 29.970 fps
Color space : YUV
Chroma subsampling : 4:2:0
Bit depth : 8 bits
Scan type : Progressive
Compression mode : Lossy
Bits/(Pixel*Frame) : 0.222
Stream size : 43.2 MiB (92%)
Writing library : XviD 1.2.1 (UTC 2008-12-04)
Audio #1
ID : 1
Format : MPEG Audio
Format version : Version 1
Format profile : Layer 3
Mode : Joint stereo
Mode extension : MS Stereo
Codec ID : 55
Codec ID/Hint : MP3
Duration : 3mn 56s
Bit rate mode : Constant
Bit rate : 128 Kbps
Channel(s) : 2 channels
Sampling rate : 44.1 KHz
Compression mode : Lossy
Delay relative to video : 33ms
Stream size : 3.61 MiB (8%)
Alignment : Aligned on interleaves
Interleave, duration : 26 ms (0.78 video frame)
Interleave, preload duration : 522 ms
Writing library : LAME3.98.4

Numb (Full-HD)

D:\My Music\Linkin Park\Klip\Numb (Full-HD).avi
General
Complete name : D:\My Music\Linkin Park\Klip\Numb (Full-HD).avi
Format : AVI
Format/Info : Audio Video Interleave
File size : 129 MiB
Duration : 3mn 6s
Overall bit rate : 5 798 Kbps
Writing application : MEncoder SVN-r33883(20110719-gcc4.5.2)
Writing library : MPlayer
Video #0
ID : 0
Format : MPEG-4 Visual
Format profile : Advanced [email protected]
Format settings, BVOP : 2
Format settings, QPel : No
Format settings, GMC : No warppoints
Format settings, Matrix : Default (H.263)
Codec ID : XVID
Codec ID/Hint : XviD
Duration : 3mn 6s
Bit rate : 5 659 Kbps
Width : 1 920 pixels
Height : 1 080 pixels
Display aspect ratio : 16:9
Frame rate : 24.000 fps
Color space : YUV
Chroma subsampling : 4:2:0
Bit depth : 8 bits
Scan type : Progressive
Compression mode : Lossy
Bits/(Pixel*Frame) : 0.114
Stream size : 126 MiB (98%)
Writing library : XviD 1.2.1 (UTC 2008-12-04)
Audio #1
ID : 1
Format : MPEG Audio
Format version : Version 1
Format profile : Layer 3
Mode : Joint stereo
Mode extension : MS Stereo
Codec ID : 55
Codec ID/Hint : MP3
Duration : 3mn 6s
Bit rate mode : Constant
Bit rate : 128 Kbps
Channel(s) : 2 channels
Sampling rate : 44.1 KHz
Compression mode : Lossy
Delay relative to video : 42ms
Stream size : 2.85 MiB (2%)
Alignment : Aligned on interleaves
Interleave, duration : 26 ms (0.63 video frame)
Interleave, preload duration : 522 ms
Writing library : LAME3.98.4

Until It's Gone

D:\My Music\Linkin Park\Klip\Until It's Gone.mp4
General
Complete name : D:\My Music\Linkin Park\Klip\Until It's Gone.mp4
Format : MPEG-4
Format profile : Base Media
Codec ID : isom
File size : 57.1 MiB
Duration : 3mn 55s
Overall bit rate mode : Variable
Overall bit rate : 2 037 Kbps
Encoded date : UTC 2014-06-17 06:22:12
Tagged date : UTC 2014-06-17 06:22:12
Video #1
ID : 1
Format : AVC
Format/Info : Advanced Video Codec
Format profile : [email protected]
Format settings, CABAC : Yes
Format settings, ReFrames : 3 frames
Codec ID : avc1
Codec ID/Info : Advanced Video Coding
Duration : 3mn 54s
Bit rate : 1 907 Kbps
Width : 1 920 pixels
Height : 1 080 pixels
Display aspect ratio : 16:9
Frame rate mode : Variable
Frame rate : 23.976 fps
Minimum frame rate : 23.974 fps
Maximum frame rate : 1 046.512 fps
Color space : YUV
Chroma subsampling : 4:2:0
Bit depth : 8 bits
Scan type : Progressive
Bits/(Pixel*Frame) : 0.038
Stream size : 53.4 MiB (94%)
Encoded date : UTC 2014-06-17 06:22:12
Tagged date : UTC 2014-06-17 06:22:12
Audio #2
ID : 2
Format : AAC
Format/Info : Advanced Audio Codec
Format profile : LC
Codec ID : 40
Duration : 3mn 55s
Bit rate mode : Variable
Bit rate : 126 Kbps
Channel(s) : 2 channels
Channel positions : Front: L R
Sampling rate : 44.1 KHz
Compression mode : Lossy
Delay relative to video : 42ms
Stream size : 3.52 MiB (6%)
Encoded date : UTC 2014-06-17 06:20:40
Tagged date : UTC 2014-06-17 06:20:40

A Light That Never Comes (Lyrycs)

D:\Games\skyrim\Âèäåî\A Light That Never Comes (Lyrycs).mp4
General
Complete name : D:\Games\skyrim\Âèäåî\A Light That Never Comes (Lyrycs).mp4
Format : MPEG-4
Format profile : Base Media
Codec ID : isom
File size : 20.3 MiB
Duration : 3mn 57s
Overall bit rate : 715 Kbps
Writing application : Lavf54.22.100
Video #1
ID : 1
Format : AVC
Format/Info : Advanced Video Codec
Format profile : [email protected]
Format settings, CABAC : Yes
Format settings, ReFrames : 5 frames
Codec ID : avc1
Codec ID/Info : Advanced Video Coding
Duration : 3mn 57s
Bit rate : 600 Kbps
Width : 640 pixels
Height : 352 pixels
Display aspect ratio : 16:9
Frame rate mode : Constant
Frame rate : 23.976 fps
Color space : YUV
Chroma subsampling : 4:2:0
Bit depth : 8 bits
Scan type : Progressive
Bits/(Pixel*Frame) : 0.111
Stream size : 17.3 MiB (85%)
Writing library : x264 core 125 r2 d9d2288
Encoding settings : cabac=1 / ref=5 / deblock=1:0:0 / analyse=0x3:0x113 / me=umh / subme=8 / psy=1 / psy_rd=1.00:0.00 / mixed_ref=1 / me_range=16 / chroma_me=1 / trellis=1 / 8x8dct=1 / cqm=0 / deadzone=21,11 / fast_pskip=1 / chroma_qp_offset=-2 / threads=2 / lookahead_threads=1 / sliced_threads=0 / nr=0 / decimate=1 / interlaced=0 / bluray_compat=0 / constrained_intra=0 / bframes=3 / b_pyramid=2 / b_adapt=2 / b_bias=0 / direct=3 / weightb=1 / open_gop=0 / weightp=2 / keyint=24 / keyint_min=2 / scenecut=40 / intra_refresh=0 / rc_lookahead=24 / rc=abr / mbtree=1 / bitrate=600 / ratetol=1.0 / qcomp=0.60 / qpmin=0 / qpmax=69 / qpstep=4 / ip_ratio=1.40 / aq=1:1.00
Audio #2
ID : 2
Format : AAC
Format/Info : Advanced Audio Codec
Format profile : LC
Codec ID : 40
Duration : 3mn 57s
Bit rate mode : Constant
Bit rate : 96.0 Kbps
Channel(s) : 2 channels
Channel positions : Front: L R
Sampling rate : 44.1 KHz
Compression mode : Lossy
Delay relative to video : 83ms
Stream size : 2.72 MiB (13%)

Lost In The Echo

D:\My Music\Linkin Park\Klip\Lost In The Echo.avi
General
Complete name : D:\My Music\Linkin Park\Klip\Lost In The Echo.avi
Format : AVI
Format/Info : Audio Video Interleave
File size : 23.3 MiB
Duration : 3mn 47s
Overall bit rate : 858 Kbps
Writing application : MEncoder SVN-r30881(20100311-gcc4.3.3)
Writing library : MPlayer
Video #0
ID : 0
Format : MPEG-4 Visual
Format profile : Advanced [email protected]
Format settings, BVOP : 2
Format settings, QPel : No
Format settings, GMC : No warppoints
Format settings, Matrix : Default (H.263)
Codec ID : XVID
Codec ID/Hint : XviD
Duration : 3mn 47s
Bit rate : 718 Kbps
Width : 632 pixels
Height : 360 pixels
Display aspect ratio : 16:9
Frame rate : 23.976 fps
Color space : YUV
Chroma subsampling : 4:2:0
Bit depth : 8 bits
Scan type : Progressive
Compression mode : Lossy
Bits/(Pixel*Frame) : 0.132
Stream size : 19.5 MiB (84%)
Writing library : XviD 1.2.1 (UTC 2008-12-04)
Audio #1
ID : 1
Format : MPEG Audio
Format version : Version 1
Format profile : Layer 3
Mode : Joint stereo
Mode extension : MS Stereo
Codec ID : 55
Codec ID/Hint : MP3
Duration : 3mn 47s
Bit rate mode : Constant
Bit rate : 128 Kbps
Channel(s) : 2 channels
Sampling rate : 44.1 KHz
Compression mode : Lossy
Delay relative to video : 42ms
Stream size : 3.48 MiB (15%)
Alignment : Aligned on interleaves
Interleave, duration : 26 ms (0.63 video frame)
Interleave, preload duration : 522 ms
Writing library : LAME3.98
-

Скриншоты

-

Burn it Down

The Catalyst

In the End

Iridescent

Leave Out All The Rest

New dewide

Not Alone

Numb

One Step clother

Papercut

Powerless

Shadow of the Day

Somwhere I Belong

Waiting For the end

What I've Done

Bleed it out

Breaking the habit

Burning in the skies

We made it

Crawling

Faint

Frgt_10

From the Inside

Given Up

Points of Authority

Castle of Glass

Kyur4 Th Ich

2000-2014

A Light That Never Comes

Enth E Nd

It's Goin' Down

Kyur4 Th Ich

Lost In The Echo

Numb - Encore ft. Jay-Z

Until It's Gone

Numb (Full-HD)

-


Последний раз редактировалось: Hasanbek (2014-07-17 19:24), всего редактировалось 25 раз(а)

Создавать темы 25-Июн-2012 14:16

[Профиль]  [ЛС] 

Hasanbek ®

Стаж: 6 лет 7 месяцев

Сообщений: 161

Симпатии: 6

Торрент обновлён. Просьба перекачать торрент


Последний раз редактировалось: Hasanbek (2014-07-16 08:58), всего редактировалось 2 раз(а)

Создавать темы 27-Июн-2012 17:05

[Профиль]  [ЛС] 

uTorrent

Стаж: 5 лет 2 месяца

Сообщений: 149

Симпатии: 1

молодец! классно оформил. а качество какое?

Создавать темы 24-Ноя-2012 11:12

[Профиль]  [ЛС] 

Hasanbek ®

Стаж: 6 лет 7 месяцев

Сообщений: 161

Симпатии: 6

молодец! классно оформил. а качество какое?
Ну как на скринах

Создавать темы 24-Ноя-2012 17:28

[Профиль]  [ЛС] 

RomaBenz

Стаж: 5 лет 1 месяц

Сообщений: 55

Симпатии: 5

Здорово! Опередил меня! От себя могу сделать топик с живыми выступлениями если кому интересно

Создавать темы 13-Янв-2013 13:01

[Профиль]  [ЛС] 

Hasanbek ®

Стаж: 6 лет 7 месяцев

Сообщений: 161

Симпатии: 6

Здорово! Опередил меня! От себя могу сделать топик с живыми выступлениями если кому интересно
Есть ещё клипы? Я сам годами их собирал.RomaBenz, Если есть,выложи пожалуйста! Я обязательно скачаю tf

Создавать темы 17-Янв-2013 19:09

[Профиль]  [ЛС] 

antypk

Стаж: 5 лет 10 месяцев

Сообщений: 106

Симпатии: 14

Спасибо!

Создавать темы 27-Мар-2013 21:05

[Профиль]  [ЛС] 

fearintino

Стаж: 4 года 10 месяцев

Сообщений: 9

Не могу найти "скачать торрент" куда пропало?))

Создавать темы 15-Апр-2013 00:11

[Профиль]  [ЛС] 

Admin

Стаж: 5 лет 11 месяцев

Сообщений: 580

Симпатии: 106

fearintino, всё,появилось,спойлер был криво закрыт.

Создавать темы 15-Апр-2013 01:50

[Профиль]  [ЛС] 

james

Стаж: 5 лет 10 месяцев

Сообщений: 113

Симпатии: 2

26.Castle of Glases мне понравилось

Создавать темы 15-Апр-2013 09:27

[Профиль]  [ЛС] 

Imhoteb

Стаж: 5 лет 2 месяца

Сообщений: 22

Автору спасибо, ибо молодец. Осталось немного подправить правописание везде.
И кстати жанров что-то совсем кот наплакал в опроснике?! Я совсем не соглашусь, что ЛП слушают лишь попники, блюзники, хип-гопники и т.д.

Создавать темы 16-Апр-2013 22:56

[Профиль]  [ЛС] 

Hasanbek ®

Стаж: 6 лет 7 месяцев

Сообщений: 161

Симпатии: 6

TIESTO, спасибо, что оперативно проверили! tx

Создавать темы 17-Апр-2013 19:34

[Профиль]  [ЛС] 

Hasanbek ®

Стаж: 6 лет 7 месяцев

Сообщений: 161

Симпатии: 6

Автору спасибо, ибо молодец. Осталось немного подправить правописание везде.
И кстати жанров что-то совсем кот наплакал в опроснике?! Я совсем не соглашусь, что ЛП слушают лишь попники, блюзники, хип-гопники и т.д.
Это я просто от себя составил опрос, самому интересно.

Создавать темы 17-Апр-2013 19:36

[Профиль]  [ЛС] 

Hasanbek ®

Стаж: 6 лет 7 месяцев

Сообщений: 161

Симпатии: 6

Народ , я по ошибке удалил клипы... Сделайте доброе дело - дайте скачать!

Создавать темы 17-Июн-2013 01:43

[Профиль]  [ЛС] 

james

Стаж: 5 лет 10 месяцев

Сообщений: 113

Симпатии: 2

Народ , я по ошибке удалил клипы... Сделайте доброе дело - дайте скачать!
давай скачай я буду на раздаче 21,00 до 9,00

Создавать темы 18-Июн-2013 13:36

[Профиль]  [ЛС] 
Показать сообщения:    
Ответить на тему

Текущее время: 16-Дек 18:12

Часовой пояс: UTC + 5



Вы не можете начинать темы
Вы не можете отвечать на сообщения
Вы не можете редактировать свои сообщения
Вы не можете удалять свои сообщения
Вы не можете голосовать в опросах
Вы не можете прикреплять файлы к сообщениям
Вы не можете скачивать файлы