Страсть к перемене мест / Wanderlust (Дэвид Уэйн) [2012 г., комедия, HDRip]

Ответить на тему
 

angor ®

Стаж: 6 лет 8 месяцев

Сообщений: 13

Страсть к перемене мест / Wanderlust
--Год выпуска: 2012
Страна: США , New Line Cinema
Жанр: комедия
Продолжительность: 01:38:06
Перевод: Любительский (одноголосый)--Режиссер: Дэвид Уэйн
В ролях: Пол Радд, Дженнифер Энистон, Джастин Теру, Алан Алда, Малин Акерман, Кен Марино, Джо Ло Труглио, Кэтрин Хан, Керри Кенни, Лорен Эмброуз
Описание: Герои фильма Линда и Джордж — самые обыкновенные городские жители. И живут они в самом обыкновенном Нью-Йорке. Но что делать, когда быт и окружающие тебя люди, то, чем ты занимаешься, да и вообще всё вокруг, начинает тебя жутко раздражать? Выход один — сменить обстановку. Так и поступает семейная пара, меняя суматошный Нью-Йорк на более спокойный небольшой городок, чтобы отдохнуть, а заодно приобщиться к тамошней культуре.
--Качество: HDRip
Формат: AVI
Видео кодек: XviD
Аудио кодек: AC3
Видео: 1601 kb/s, 720x384
Аудио: AC3, 384 kb/s (6 ch)
--

MI

General
Complete name : d:\Pes 2012\Strast.k.peremene.mest.2012.L1.HDRip.1400Mb.avi
Format : AVI
Format/Info : Audio Video Interleave
File size : 1.37 GiB
Duration : 1h 38mn
Overall bit rate : 1 995 Kbps
Writing application : VirtualDubMod 1.5.10.2 (build 2540/release)
Writing library : VirtualDubMod build 2540/release
Video
ID : 0
Format : MPEG-4 Visual
Format profile : [email protected]
Format settings, BVOP : Yes
Format settings, QPel : No
Format settings, GMC : No warppoints
Format settings, Matrix : Default (MPEG)
Muxing mode : Packed bitstream
Codec ID : XVID
Codec ID/Hint : XviD
Duration : 1h 38mn
Bit rate : 1 602 Kbps
Width : 720 pixels
Height : 384 pixels
Display aspect ratio : 1.875
Frame rate : 23.976 fps
Resolution : 24 bits
Colorimetry : 4:2:0
Scan type : Progressive
Bits/(Pixel*Frame) : 0.242
Stream size : 1.10 GiB (80%)
Writing library : XviD 72
Audio
ID : 1
Format : AC-3
Format/Info : Audio Coding 3
Codec ID : 2000
Duration : 1h 38mn
Bit rate mode : Constant
Bit rate : 384 Kbps
Channel(s) : 6 channels
Channel positions : Front: L C R, Surround: L R, LFE
Sampling rate : 48.0 KHz
Stream size : 269 MiB (19%)
Alignment : Split accross interleaves
Interleave, duration : 42 ms (1.00 video frame)
Interleave, preload duration : 500 ms

Скриншоты



--

Создавать темы 25-Июн-2012 20:47

[Профиль]  [ЛС] 

YUPI

Стаж: 5 лет 5 месяцев

Сообщений: 56

Симпатии: 1

молочик angor

Создавать темы 25-Июн-2012 21:04

[Профиль]  [ЛС] 

McFLY

Стаж: 5 лет 9 месяцев

Сообщений: 658

Симпатии: 22

Спасибо! ay

Создавать темы 25-Июн-2012 21:32

[Профиль]  [ЛС] 

angor ®

Стаж: 6 лет 8 месяцев

Сообщений: 13

+1 Гдеееее !

Создавать темы 25-Июн-2012 22:23

[Профиль]  [ЛС] 

Robox

Стаж: 6 лет 9 месяцев

Сообщений: 72

Симпатии: 1

за что давать +1 перевод Одноголосный

Создавать темы 25-Июн-2012 22:35

[Профиль]  [ЛС] 

[email protected]$

Стаж: 6 лет

Сообщений: 35

Симпатии: 3

+1

Создавать темы 26-Июн-2012 00:12

[Профиль]  [ЛС] 

Proxa

Стаж: 5 лет 10 месяцев

Сообщений: 104

Симпатии: 4

за что давать +1 перевод Одноголосный
Согласен лицуху залей!! хоть +100000 будет )

Создавать темы 26-Июн-2012 19:50

[Профиль]  [ЛС] 

angor ®

Стаж: 6 лет 8 месяцев

Сообщений: 13

Proxa, Robox, ок !

Создавать темы 26-Июн-2012 21:11

[Профиль]  [ЛС] 

McFLY

Стаж: 5 лет 9 месяцев

Сообщений: 658

Симпатии: 22

Robox, Proxa, чем флудить , лучше бы поблагодарили за релиз! Эгоисты.

Создавать темы 28-Июн-2012 10:02

[Профиль]  [ЛС] 

Hasanbek

Стаж: 6 лет 7 месяцев

Сообщений: 161

Симпатии: 6

скачавшие отпишитесь,филь норм?стоит качать?

Создавать темы 28-Июн-2012 10:50

[Профиль]  [ЛС] 

Javohir96

Стаж: 5 лет 10 месяцев

Сообщений: 40

Симпатии: 1

Proxa, Robox, вы сами хоть что нибудь залейте, а за фильм спасибо автору bf

Создавать темы 28-Июн-2012 21:39

[Профиль]  [ЛС] 
Показать сообщения:    
Ответить на тему

Текущее время: 16-Дек 00:54

Часовой пояс: UTC + 5



Вы не можете начинать темы
Вы не можете отвечать на сообщения
Вы не можете редактировать свои сообщения
Вы не можете удалять свои сообщения
Вы не можете голосовать в опросах
Вы не можете прикреплять файлы к сообщениям
Вы не можете скачивать файлы