WWE Friday Night Smackdown 2012/06/22 [2012 г., Реслинг, HDTV]

Страницы :  1, 2  След.

Ответить на тему
 

Спартанец ®

Стаж: 5 лет 7 месяцев

Сообщений: 361

WWE Friday Night Smackdown 2012/06/22
Год выпуска: 2012
Вид спорта: Реслинг
Участники: Звезды WWE
Продолжительность: 01.27.54
Комментарий: Профессиональный (многоголосый, закадровый)
Язык комментариев: Русский
Описание: Еженедельный выпуск Friday Night Smackdown. Выпуск от 22-го июня 2012 года
Качество: HDTV
Формат: Mр4
Видео кодек: x264/AVC
Аудио кодек: AAC
Видео: MPEG4, Video, (H264), 704x400, 29.97fps, 1 438 Kbps
Аудио: AAC, 44100Hz, stereo, 1411kbps, 128 Kbps

Кард

Sheamus vs. Dolph Ziggler
Kane vs. Daniel Bryan
Christian vs. Alberto Del Rio
Zack Ryder vs. Heath Slater
The Usos vs. The Prime Time Players
Ryback in action

МедиаИнфо

General
Format : MPEG-4
Format profile : Base Media
Codec ID : isom
File size : 987 MiB
Duration : 1h 27mn
Overall bit rate mode : Variable
Overall bit rate : 1 570 Kbps
Encoded date : UTC 2012-06-21 11:54:04
Tagged date : UTC 2012-06-21 11:54:04
Writing application : Yamb 2.1.0.0 [http://yamb.unite-video.com]
Video
ID : 1
Format : AVC
Format/Info : Advanced Video Codec
Format profile : [email protected]
Format settings, CABAC : Yes
Format settings, ReFrames : 4 frames
Codec ID : avc1
Codec ID/Info : Advanced Video Coding
Duration : 1h 27mn
Bit rate : 1 438 Kbps
Maximum bit rate : 2 400 Kbps
Width : 704 pixels
Height : 400 pixels
Display aspect ratio : 16:9
Frame rate mode : Constant
Frame rate : 29.970 fps
Color space : YUV
Chroma subsampling : 4:2:0
Bit depth : 8 bits
Scan type : Progressive
Bits/(Pixel*Frame) : 0.170
Stream size : 904 MiB (92%)
Writing library : x264 core 122 r2184 5c85e0a
Encoding settings : cabac=1 / ref=5 / deblock=1:0:0 / analyse=0x3:0x113 / me=umh / subme=9 / psy=1 / psy_rd=1.00:0.00 / mixed_ref=1 / me_range=16 / chroma_me=1 / trellis=1 / 8x8dct=1 / cqm=0 / deadzone=21,11 / fast_pskip=1 / chroma_qp_offset=-2 / threads=12 / sliced_threads=0 / nr=0 / decimate=1 / interlaced=0 / bluray_compat=0 / constrained_intra=0 / bframes=3 / b_pyramid=1 / b_adapt=2 / b_bias=0 / direct=3 / weightb=1 / open_gop=0 / weightp=2 / keyint=300 / keyint_min=30 / scenecut=40 / intra_refresh=0 / rc_lookahead=40 / rc=crf / mbtree=1 / crf=19.0 / qcomp=0.60 / qpmin=0 / qpmax=69 / qpstep=4 / vbv_maxrate=1500 / vbv_bufsize=1450 / crf_max=0.0 / nal_hrd=none / ip_ratio=1.40 / aq=1:1.00
Encoded date : UTC 2011-09-08 11:43:25
Tagged date : UTC 2012-06-21 11:55:54
Audio
ID : 2
Format : AAC
Format/Info : Advanced Audio Codec
Format profile : LC
Codec ID : 40
Duration : 1h 27mn
Bit rate mode : Variable
Bit rate : 128 Kbps
Maximum bit rate : 157 Kbps
Channel(s) : 2 channels
Channel positions : Front: L R
Sampling rate : 44.1 KHz
Compression mode : Lossy
Stream size : 80.5 MiB (8%)
Encoded date : UTC 2012-06-21 11:55:45
Tagged date : UTC 2012-06-21 11:55:54

Скриншоты



Создавать темы 25-Июн-2012 21:48

[Профиль]  [ЛС] 

rey mysterio

Стаж: 5 лет 8 месяцев

Сообщений: 164

Спасибо Спартанец ))+1

Создавать темы 26-Июн-2012 00:10

[Профиль]  [ЛС] 

Kubaev_Muhiddin

Стаж: 6 лет 7 месяцев

Сообщений: 104

Симпатии: 34

Спасибо

Создавать темы 26-Июн-2012 04:51

[Профиль]  [ЛС] 

nikita

Стаж: 6 лет 11 месяцев

Сообщений: 82

Симпатии: 4

спасибо Спартанец ты как всегда красава=)

Создавать темы 26-Июн-2012 10:04

[Профиль]  [ЛС] 

NodirAgenT

Стаж: 6 лет 5 месяцев

Сообщений: 204

Спартанец А не Лучше Чтобы Каждый То что Хотел оставлял В ( Одной Из Последних Тем ) Название и Скрин ?

_________________
Подпись отключена за нарушение правил форума

Создавать темы 26-Июн-2012 10:21

[Профиль]  [ЛС] 

NodirAgenT

Стаж: 6 лет 5 месяцев

Сообщений: 204

Нет Это Спппппааааарррртттаааа ( Если Можно Залей Реслманию 25 B 24 И самерслем 2010 И Обязательно Посмотрите ПОч Я Хочу Чтоб ты Их Залил В самом Внизу есь Ссылки Посматри ( Плиисссс)))


http://ru.wikipedia.org/wiki/%D0%A0%D0%B5%D1%81%D1%82%D0%BB%D0%BC%D0%B0%D0%BD%D0%B8%D1%8F_XXV
http://ru.wikipedia.org/wiki/%D0%A0%D0%B5%D1%81%D1%82%D0%BB%D0%BC%D0%B0%D0%BD%D0%B8%D1%8F_XXIV
http://ru.wikipedia.org/wiki/SummerSlam_(2010)--Картинки в следующий раз под спойлер убирайте! © Pendalf

_________________
Подпись отключена за нарушение правил форума

Создавать темы 26-Июн-2012 21:38

[Профиль]  [ЛС] 

NodirAgenT

Стаж: 6 лет 5 месяцев

Сообщений: 204

1---На 25 Реслмании Будут Почти все виды Матчей Битва С Ламберджаками,Мани Ин Зе банк,Королевская Битва( Телочек),Handicap elimination match,Поединок по экстремальным правилам И тп И Тд.
2---Команда WWE (Джон Сина, Джон Моррисон, Р-Труф, Брет Харт, Эдж, Крис Джерико и Дэниель Брайан) ПРОТИВ Нексуса(Уэйд Баррет, Дэвид Отунга, Джастин Гэбриел, Хит Слэйтер, Даррен Янг, Скип Шеффилд и Майкл Тарвер)
3---Это Ржака С Биг Шоу Плейбой Телочки , Баттттиссста, Гробовщик И Тройной Матч ( С САМЫМ КРАСИВЫМ ВЫХОДОМ Джон СИны
Ну а ост Хз но там Есть 619 С каином и тд почитайте и выберете а еси получится То посмотрим Все спс Надеюс меня поддержут
и ПС Ищу АфффТора сайт wwe.orca.uz Жаль сайт пропадает

_________________
Подпись отключена за нарушение правил форума

Создавать темы 26-Июн-2012 21:55

[Профиль]  [ЛС] 

Emil_Safa

Стаж: 5 лет 3 месяца

Сообщений: 102

На счет Рестлмании было бы круто,думаю лучше создать свой сайт и красиво его оформить,этот сайт простите выглядит как дешёвка(я про wwe.orca)
Можно там загружать разные статьи,музыку и промо ролики реслеров(ток не те которые уже есть на МоейТрубе И Мувеке)

Создавать темы 26-Июн-2012 22:05

[Профиль]  [ЛС] 

Kroys

Стаж: 5 лет 11 месяцев

Сообщений: 187

Симпатии: 1

NodirAgenT о да ) ты как всегда в точку)) 24 рестлманию не отказался бы посмореть ))

Создавать темы 27-Июн-2012 02:43

[Профиль]  [ЛС] 

Frozzen

Стаж: 5 лет 3 месяца

Сообщений: 88

25 Рестлемания была очень классной, залейте суда плиз, еще раз не терпится посмотреть)

Создавать темы 27-Июн-2012 08:46

[Профиль]  [ЛС] 

rey mysterio

Стаж: 5 лет 8 месяцев

Сообщений: 164

NodirAgenT, поддерживаю

Создавать темы 27-Июн-2012 14:33

[Профиль]  [ЛС] 

NodirAgenT

Стаж: 6 лет 5 месяцев

Сообщений: 204

Да сайт Дешевка 1 вопрос скок стоит хостинг домен примерно на 1 год?

_________________
Подпись отключена за нарушение правил форума

Создавать темы 27-Июн-2012 14:53

[Профиль]  [ЛС] 

Kroys

Стаж: 5 лет 11 месяцев

Сообщений: 187

Симпатии: 1

вооо ща NodirAgenT , rey mysterio , Спартанец ® - свой сайт сделают ))) тока в тасе делайте если что :)

Создавать темы 27-Июн-2012 17:34

[Профиль]  [ЛС] 

The Game

Стаж: 5 лет 6 месяцев

Сообщений: 80

Симпатии: 1

В полне согласен с тобой Kroys,

Создавать темы 27-Июн-2012 17:43

[Профиль]  [ЛС] 

Emil_Safa

Стаж: 5 лет 3 месяца

Сообщений: 102

Можно переделать и тот сайт ,для этого нужно админа найти сайта
Могу дать шаблоны сайтов там выбрать)

Создавать темы 27-Июн-2012 17:58

[Профиль]  [ЛС] 
Показать сообщения:    
Ответить на тему

Текущее время: 22-Сен 12:57

Часовой пояс: UTC + 5



Вы не можете начинать темы
Вы не можете отвечать на сообщения
Вы не можете редактировать свои сообщения
Вы не можете удалять свои сообщения
Вы не можете голосовать в опросах
Вы не можете прикреплять файлы к сообщениям
Вы не можете скачивать файлы