Федор Емельяненко - Педро Риззо [2012 г., MMA, SATRip]

Ответить на тему
 

Bayrin ®

Стаж: 5 лет 5 месяцев

Сообщений: 7

Симпатии: 1

Федор Емельяненко - Педро Риззо
Год выпуска: 2012
Вид спорта: MMA
Участники: Федор Емельяненко, Педро Риззо
Продолжительность: 00:07:03
Комментарий: Профессиональный (двухголосый)
Описание: На данный момент последний поединок легендарного Федора Емельяненко с бразильским мастером кикбоксинга Педро "Скала" Риззо, прошедший 21 июня 2012г.
Качество: SATRip
Формат: FLV
Видео кодек: AVC
Аудио кодек: AAC
Видео: AVC, 640х480, 25.000 fps, 1033 Kbps.
Аудио: AAC-LC, 44.1 KHz, 2 ch, 94.4 Kbps.

Скриншоты



MediaInfo

General
Complete name : E:\Разное\Единоборства\Emelianenko - Rizzo.flv
Format : Flash Video
File size : 52.1 MiB
Duration : 7mn 3s
Overall bit rate : 1 033 Kbps
Tagging application : Yet Another Metadata Injector for FLV - Version 1.8
Video
Format : AVC
Format/Info : Advanced Video Codec
Format profile : [email protected]
Format settings, CABAC : Yes
Format settings, ReFrames : 4 frames
Codec ID : 7
Duration : 7mn 3s
Bit rate : 906 Kbps
Width : 640 pixels
Height : 480 pixels
Display aspect ratio : 4:3
Frame rate mode : Constant
Frame rate : 25.000 fps
Color space : YUV
Chroma subsampling : 4:2:0
Bit depth : 8 bits
Scan type : Progressive
Bits/(Pixel*Frame) : 0.118
Stream size : 46.9 MiB (90%)
Writing library : x264 core 116 r2044 392e762
Encoding settings : cabac=1 / ref=2 / deblock=1:-1:-1 / analyse=0x1:0x111 / me=hex / subme=6 / psy=1 / psy_rd=1.00:0.15 / mixed_ref=1 / me_range=16 / chroma_me=1 / trellis=1 / 8x8dct=0 / cqm=0 / deadzone=21,11 / fast_pskip=1 / chroma_qp_offset=-3 / threads=36 / sliced_threads=0 / nr=0 / decimate=1 / interlaced=0 / bluray_compat=0 / constrained_intra=0 / bframes=3 / b_pyramid=2 / b_adapt=1 / b_bias=0 / direct=1 / weightb=1 / open_gop=0 / weightp=1 / keyint=250 / keyint_min=25 / scenecut=40 / intra_refresh=0 / rc_lookahead=30 / rc=crf / mbtree=1 / crf=22.0 / qcomp=0.60 / qpmin=0 / qpmax=69 / qpstep=4 / ip_ratio=1.40 / aq=1:1.00
Audio
Format : AAC
Format/Info : Advanced Audio Codec
Format profile : LC
Codec ID : 10
Duration : 7mn 3s
Bit rate : 94.4 Kbps
Channel(s) : 2 channels
Channel positions : Front: L R
Sampling rate : 44.1 KHz
Compression mode : Lossy
Delay relative to video : 80ms
Stream size : 5.07 MiB (10%)

Создавать темы 26-Июн-2012 10:38

[Профиль]  [ЛС] 

Hasanbek

Стаж: 6 лет 3 месяца

Сообщений: 161

Симпатии: 6

классный бой! Спасибо!

Создавать темы 28-Июн-2012 10:47

[Профиль]  [ЛС] 

Hasanbek

Стаж: 6 лет 3 месяца

Сообщений: 161

Симпатии: 6

Bayrin,
Полного источника не было: Никогда
Встань на раздачу!

Создавать темы 28-Июн-2012 10:48

[Профиль]  [ЛС] 

Bayrin ®

Стаж: 5 лет 5 месяцев

Сообщений: 7

Симпатии: 1

Bayrin,
Полного источника не было: Никогда
Встань на раздачу!
Сорри, небольшие технические проблемы. На днях всё устраню, чуточку терпения))

Создавать темы 28-Июн-2012 12:57

[Профиль]  [ЛС] 

daler

Стаж: 5 лет

Сообщений: 14

раздавайте народ посморюка )

Создавать темы 14-Ноя-2012 13:43

[Профиль]  [ЛС] 

Rustamchik9390

Стаж: 5 лет 3 месяца

Сообщений: 42

Дайте скорости Please!!!!

Создавать темы 21-Ноя-2012 11:53

[Профиль]  [ЛС] 

SAfiN

Стаж: 5 лет 7 месяцев

Сообщений: 12

Емельяненко КОРОЛЬ БОЕВ БЕЗ ПРАВИЛ

Создавать темы 09-Янв-2013 17:47

[Профиль]  [ЛС] 

rubesha

Стаж: 5 лет 2 месяца

Сообщений: 1

дайте скорость пожалуйста

Создавать темы 20-Мар-2013 07:25

[Профиль]  [ЛС] 
Показать сообщения:    
Ответить на тему

Текущее время: 20-Авг 03:39

Часовой пояс: UTC + 5



Вы не можете начинать темы
Вы не можете отвечать на сообщения
Вы не можете редактировать свои сообщения
Вы не можете удалять свои сообщения
Вы не можете голосовать в опросах
Вы не можете прикреплять файлы к сообщениям
Вы не можете скачивать файлы