Кино и Виктор Цой. Концерт в СКК Олимпийский 5.05.1990 (эфир 2010 г.) [1990 г., Рок, SATRip]

Ответить на тему
 

junior ®

Стаж: 7 лет 8 месяцев

Сообщений: 138

Симпатии: 7

Кино и Виктор Цой. Концерт в СКК Олимпийский 5.05.1990 (эфир 2010 г.)
Год выпуска: 1990
Жанр: Рок
Продолжительность: 01:03:55
Описание: Первый канал представляет запись одного из последних концертов Виктора Цоя и гр. "Кино", прошедшего 5 мая 1990 года в московском спорткомплексе "Олимпийский". Через три с половиной месяца легендарный советский рок-музыкант погиб.
На сцене "Олимпийского" Цой исполнил хиты, на которых выросло целое поколение молодежи бывшего СССР конца 80-х и начала 90-х.: "Белый день", "Звезда по имени Солнце", "Закрой за мной дверь", "Верь", "Печаль", "Последний герой", "Бошетунмай", "Пачка сигарет", "Камчатка", "Война", "Спокойная ночь", "Перемен", "Группа крови".
Треклист
1. Группа крови
2. Песня без слов
3. Звезда по имени Солнце
4. Закрой за мной дверь
5. Стук
6. Печаль
7. Последний герой
8. Бошетунмай
9. Пачка сигарет
10. Камчатка
11. Война
12. Спокойная ночь
13. Хочу перемен
14. Группа крови

Медиаинфо

Koncert.v.Olimpiyskom.1990.DivX.SatRip.avi
General
Complete name : Koncert.v.Olimpiyskom.1990.DivX.SatRip.avi
Format : AVI
Format/Info : Audio Video Interleave
File size : 853 MiB
Duration : 1h 3mn
Overall bit rate : 1 865 Kbps
Writing application : DigiArty AV Encoder Core
Video #0
ID : 0
Format : MPEG-4 Visual
Format profile : [email protected]
Format settings, BVOP : No
Format settings, QPel : No
Format settings, GMC : No warppoints
Format settings, Matrix : Default (H.263)
Codec ID : DX50
Codec ID/Hint : DivX 5
Duration : 1h 3mn
Bit rate : 1 659 Kbps
Width : 720 pixels
Height : 404 pixels
Display aspect ratio : 16:9
Frame rate : 29.970 fps
Resolution : 24 bits
Colorimetry : 4:2:0
Scan type : Progressive
Bits/(Pixel*Frame) : 0.190
Stream size : 759 MiB (89%)
Writing library : DigiArty AV Encoder Core
Audio #1
ID : 1
Format : MPEG Audio
Format version : Version 1
Format profile : Layer 3
Codec ID : 55
Codec ID/Hint : MP3
Duration : 1h 3mn
Bit rate mode : Constant
Bit rate : 192 Kbps
Channel(s) : 2 channels
Sampling rate : 48.0 KHz
Resolution : 16 bits
Stream size : 87.8 MiB (10%)
Alignment : Aligned on interleaves
Interleave, duration : 24 ms (0.72 video frame)
Interleave, preload duration : 24 ms
Writing library : LAME3.98.2
Качество: SATRip
Формат: AVI
Видео кодек: DivX
Аудио кодек: MP3

Скриншоты



Создавать темы 26-Июн-2012 14:34

[Профиль]  [ЛС] 
Показать сообщения:    
Ответить на тему

Текущее время: 19-Авг 08:49

Часовой пояс: UTC + 5



Вы не можете начинать темы
Вы не можете отвечать на сообщения
Вы не можете редактировать свои сообщения
Вы не можете удалять свои сообщения
Вы не можете голосовать в опросах
Вы не можете прикреплять файлы к сообщениям
Вы не можете скачивать файлы