wwe summerslam [2010 г., Реслинг, HDTV]

Страницы :  1, 2  След.

Ответить на тему
 

Спартанец ®

Стаж: 5 лет 9 месяцев

Сообщений: 361

-wwe summerslam 2010 Год выпуска: 2010
Вид спорта: Реслинг
Участники: Звезды WWE
Продолжительность: 02.57.48
Комментарий: Профессиональный (многоголосый, закадровый)
Описание: Главное событие лета 2010 года в WWE
Качество: HDTV
Формат: Mр4
Видео кодек: XviD
Аудио кодек: MPEG Audio
Видео: Xvid, 624x352, 29.97fps, 1 034 Kbps
Аудио: MPEG, Audio, Layer 3 48000Hz, stereo, 128kbps, 128 Kbps

Скриншоты



Кард

Sheamus vs. Randy Orton - WWE Championship
________________________________________
Kane vs. Rey Mysterio - World Heavyweight Championship
________________________________________
Team WWE vs. The Nexus - Elimination Tag Team Match
________________________________________
Dolph Ziggler vs. Kofi Kingston - Intercontinental Championship
________________________________________
The Straight Edge Society vs. The Big Show - 3-on-1 Handicap Match
________________________________________
Alicia Fox vs. Melina - Divas Championship

МедиаИнфо

General
Format : AVI
Format/Info : Audio Video Interleave
File size : 1.46 GiB
Duration : 2h 57mn
Overall bit rate mode : Variable
Overall bit rate : 1 177 Kbps
Writing application : VirtualDubMod 1.5.10.2 (build 2540/release)
Writing library : VirtualDubMod build 2540/release
Video
ID : 0
Format : MPEG-4 Visual
Format profile : Advanced [email protected]
Format settings, BVOP : 2
Format settings, QPel : No
Format settings, GMC : No warppoints
Format settings, Matrix : Default (H.263)
Codec ID : XVID
Codec ID/Hint : XviD
Duration : 2h 57mn
Bit rate : 1 034 Kbps
Width : 624 pixels
Height : 352 pixels
Display aspect ratio : 16:9
Frame rate : 29.970 fps
Color space : YUV
Chroma subsampling : 4:2:0
Bit depth : 8 bits
Scan type : Progressive
Compression mode : Lossy
Bits/(Pixel*Frame) : 0.157
Stream size : 1.28 GiB (88%)
Writing library : XviD 1.2.1 (UTC 2008-12-04)
Audio
ID : 1
Format : MPEG Audio
Format version : Version 1
Format profile : Layer 3
Mode : Joint stereo
Codec ID : 55
Codec ID/Hint : MP3
Duration : 2h 57mn
Bit rate mode : Variable
Bit rate : 128 Kbps
Channel(s) : 2 channels
Sampling rate : 48.0 KHz
Compression mode : Lossy
Stream size : 164 MiB (11%)
Alignment : Aligned on interleaves
Interleave, duration : 24 ms (0.72 video frame)
Interleave, preload duration : 142 ms
Writing library : LAME3.92
Encoding settings : -m j -V 4 -q 2 -lowpass 17.5 --abr 128

Создавать темы 27-Июн-2012 22:04

[Профиль]  [ЛС] 

The Game

Стаж: 5 лет 8 месяцев

Сообщений: 80

Симпатии: 1

СПС Спартанец, давно ждал

Создавать темы 27-Июн-2012 22:14

[Профиль]  [ЛС] 

rey mysterio

Стаж: 5 лет 10 месяцев

Сообщений: 164

Спасибо

Создавать темы 27-Июн-2012 22:39

[Профиль]  [ЛС] 

Emil_Safa

Стаж: 5 лет 5 месяцев

Сообщений: 102

Cпасибо Спартанец
Видел тут один бой Мистерио против Кейна,матч достойный
Хочу посмотреть бой Старого Нексуса против команды Джона Сины

Создавать темы 27-Июн-2012 22:52

[Профиль]  [ЛС] 

Kroys

Стаж: 6 лет 1 месяц

Сообщений: 187

Симпатии: 1

вот вот ))) скоро посморЮЮ))) скорей бы скачалосЬ))

Создавать темы 28-Июн-2012 00:03

[Профиль]  [ЛС] 

NodirAgenT

Стаж: 6 лет 7 месяцев

Сообщений: 204

Поч не качает ? У вас Тож

_________________
Подпись отключена за нарушение правил форума

Создавать темы 28-Июн-2012 19:27

[Профиль]  [ЛС] 

The Game

Стаж: 5 лет 8 месяцев

Сообщений: 80

Симпатии: 1

У меня качает уже 23%

Создавать темы 28-Июн-2012 20:24

[Профиль]  [ЛС] 

rey mysterio

Стаж: 5 лет 10 месяцев

Сообщений: 164

это мы помогаем у меня 73%

Создавать темы 28-Июн-2012 20:33

[Профиль]  [ЛС] 

The Game

Стаж: 5 лет 8 месяцев

Сообщений: 80

Симпатии: 1

Если не хочешь не помоги rey mysterio,

Создавать темы 28-Июн-2012 21:02

[Профиль]  [ЛС] 

The Game

Стаж: 5 лет 8 месяцев

Сообщений: 80

Симпатии: 1

Я не нуждаюсь в твоем помощи

Создавать темы 28-Июн-2012 21:03

[Профиль]  [ЛС] 

rey mysterio

Стаж: 5 лет 10 месяцев

Сообщений: 164

The Game, я говорю не про одного себя же нас тут 4 , и я имел со всем другое

Создавать темы 28-Июн-2012 21:52

[Профиль]  [ЛС] 

aaaaa

Стаж: 5 лет 9 месяцев

Сообщений: 64

Блин народ я на этой неделе уежаю боюсь два выпуска пропустить,на следущей неделе будут еще сиды?

Создавать темы 28-Июн-2012 21:55

[Профиль]  [ЛС] 

rey mysterio

Стаж: 5 лет 10 месяцев

Сообщений: 164

я под 2 недели сидирую как минимум

Создавать темы 28-Июн-2012 22:16

[Профиль]  [ЛС] 

aaaaa

Стаж: 5 лет 9 месяцев

Сообщений: 64

я под 2 недели сидирую как минимум
спасибо рей теперь я могу не напрягатся)

Создавать темы 28-Июн-2012 22:20

[Профиль]  [ЛС] 

rey mysterio

Стаж: 5 лет 10 месяцев

Сообщений: 164

))

Создавать темы 28-Июн-2012 22:24

[Профиль]  [ЛС] 
Показать сообщения:    
Ответить на тему

Текущее время: 24-Ноя 14:13

Часовой пояс: UTC + 5



Вы не можете начинать темы
Вы не можете отвечать на сообщения
Вы не можете редактировать свои сообщения
Вы не можете удалять свои сообщения
Вы не можете голосовать в опросах
Вы не можете прикреплять файлы к сообщениям
Вы не можете скачивать файлы