WWE Summerslam 2011 [2011 г., Реслинг, HDTVRip]

Страницы :  1, 2  След.

Ответить на тему
 

Спартанец ®

Стаж: 5 лет 9 месяцев

Сообщений: 361

-WWE Summerslam 2011 Год выпуска: 2011
Вид спорта: Реслинг
Участники: Звезды WWE
Продолжительность: 02.49.57
Комментарий: Профессиональный (многоголосый, закадровый)
Язык комментариев: Русский
Описание: Главное событие лета 2011 года в WWE
Качество: HDTVRip
Формат: AVI
Видео кодек: DivX
Аудио кодек: MPEG Audio
Видео: DivX 5, 640x368, 25fps, 1 002 Kbps
Аудио: MPEG, Audio, Layer 3, 44100Hz, stereo, 160kbps,

Скриншоты



Кард

CM Punk vs. John Cena - Undisputed WWE Championship
Christian (c) vs. Randy Orton - No Holds Barred match for the World Heavyweight Championship
Kelly Kelly (c) vs. Beth Phoenix - WWE Divas Championship
Sheamus vs. Mark Henry
Daniel Bryan vs. Wade Barrett
Kofi Kingston, Rey Mysterio and John Morrison vs. Alberto Del Rio, R-Truth and The Miz

МедиаИнфо

AVI-1

General
Format : AVI
Format/Info : Audio Video Interleave
File size : 869 MiB
Duration : 1h 43mn
Overall bit rate : 1 175 Kbps
Video
ID : 0
Format : MPEG-4 Visual
Format settings, BVOP : 1
Format settings, QPel : No
Format settings, GMC : No warppoints
Format settings, Matrix : Default (H.263)
Muxing mode : Packed bitstream
Codec ID : DX50
Codec ID/Hint : DivX 5
Duration : 1h 43mn
Bit rate : 1 002 Kbps
Width : 640 pixels
Height : 368 pixels
Display aspect ratio : 16:9
Frame rate : 25.000 fps
Color space : YUV
Chroma subsampling : 4:2:0
Bit depth : 8 bits
Scan type : Progressive
Compression mode : Lossy
Bits/(Pixel*Frame) : 0.170
Stream size : 741 MiB (85%)
Writing library : DivX 2310
Audio
ID : 1
Format : MPEG Audio
Format version : Version 1
Format profile : Layer 3
Mode : Joint stereo
Mode extension : MS Stereo
Codec ID : 55
Codec ID/Hint : MP3
Duration : 1h 43mn
Bit rate mode : Constant
Bit rate : 160 Kbps
Channel(s) : 2 channels
Sampling rate : 44.1 KHz
Compression mode : Lossy
Stream size : 118 MiB (14%)
Alignment : Aligned on interleaves
Interleave, duration : 26 ms (0.65 video frame)
Interleave, preload duration : 26 ms

AVI-2

General
Format : AVI
Format/Info : Audio Video Interleave
File size : 559 MiB
Duration : 1h 6mn
Overall bit rate : 1 173 Kbps
Video
ID : 0
Format : MPEG-4 Visual
Format settings, BVOP : 1
Format settings, QPel : No
Format settings, GMC : No warppoints
Format settings, Matrix : Default (H.263)
Muxing mode : Packed bitstream
Codec ID : DX50
Codec ID/Hint : DivX 5
Duration : 1h 6mn
Bit rate : 1 001 Kbps
Width : 640 pixels
Height : 368 pixels
Display aspect ratio : 16:9
Frame rate : 25.000 fps
Color space : YUV
Chroma subsampling : 4:2:0
Bit depth : 8 bits
Scan type : Progressive
Compression mode : Lossy
Bits/(Pixel*Frame) : 0.170
Stream size : 476 MiB (85%)
Writing library : DivX 2310
Audio
ID : 1
Format : MPEG Audio
Format version : Version 1
Format profile : Layer 3
Mode : Joint stereo
Mode extension : MS Stereo
Codec ID : 55
Codec ID/Hint : MP3
Duration : 1h 6mn
Bit rate mode : Constant
Bit rate : 160 Kbps
Channel(s) : 2 channels
Sampling rate : 44.1 KHz
Compression mode : Lossy
Stream size : 76.2 MiB (14%)
Alignment : Aligned on interleaves
Interleave, duration : 26 ms (0.65 video frame)
Interleave, preload duration : 26 ms

Создавать темы 27-Июн-2012 22:49

[Профиль]  [ЛС] 

rey mysterio

Стаж: 5 лет 10 месяцев

Сообщений: 164

Спасибо))

Создавать темы 27-Июн-2012 22:58

[Профиль]  [ЛС] 

Kroys

Стаж: 6 лет 1 месяц

Сообщений: 187

Симпатии: 1

а так какой лучше то ?))) я пока 2010 качаю))

Создавать темы 28-Июн-2012 00:03

[Профиль]  [ЛС] 

Kroys

Стаж: 6 лет 1 месяц

Сообщений: 187

Симпатии: 1

давайте пока этот пораздайте хорошенько)) а потом тот ))

Создавать темы 28-Июн-2012 00:12

[Профиль]  [ЛС] 

NodirAgenT

Стаж: 6 лет 7 месяцев

Сообщений: 204

И этот Не качает у вас Тож *?

_________________
Подпись отключена за нарушение правил форума

Создавать темы 28-Июн-2012 19:28

[Профиль]  [ЛС] 

rey mysterio

Стаж: 5 лет 10 месяцев

Сообщений: 164

Да ((

Создавать темы 28-Июн-2012 19:36

[Профиль]  [ЛС] 

Emil_Safa

Стаж: 5 лет 5 месяцев

Сообщений: 102

У всех сейчас не качает?

Создавать темы 29-Июн-2012 11:37

[Профиль]  [ЛС] 

The Game

Стаж: 5 лет 8 месяцев

Сообщений: 80

Симпатии: 1

Да

Создавать темы 29-Июн-2012 11:49

[Профиль]  [ЛС] 

Emil_Safa

Стаж: 5 лет 5 месяцев

Сообщений: 102

Блин че такое все качают,на сайте проценты меняются у других,а в проге они не высвечиваются

Создавать темы 29-Июн-2012 12:50

[Профиль]  [ЛС] 

Kroys

Стаж: 6 лет 1 месяц

Сообщений: 187

Симпатии: 1

я тот скачал

Создавать темы 29-Июн-2012 17:46

[Профиль]  [ЛС] 

Emil_Safa

Стаж: 5 лет 5 месяцев

Сообщений: 102

4 cида и не кто не раздает?!

Создавать темы 29-Июн-2012 18:04

[Профиль]  [ЛС] 

Emil_Safa

Стаж: 5 лет 5 месяцев

Сообщений: 102

УФ сегодня нетка кончается,запалтил только в понедельник или во вторник дадут сиды пожалуйста не уходите с раздачи до вторника=)

Создавать темы 30-Июн-2012 12:46

[Профиль]  [ЛС] 

Felinn1

Стаж: 6 лет 4 месяца

Сообщений: 37

Симпатии: 1

Супер. Спасибо

Создавать темы 30-Июн-2012 14:16

[Профиль]  [ЛС] 

NodirAgenT

Стаж: 6 лет 7 месяцев

Сообщений: 204

Народ Смарите Хорошенько Сина Поставил ногу На канат ни Честно епт Му даки неодеваты Собралис HHH Плохой Судья <~~>

_________________
Подпись отключена за нарушение правил форума

Создавать темы 02-Июл-2012 21:02

[Профиль]  [ЛС] 

Vovo4ka

Стаж: 6 лет 4 месяца

Сообщений: 160

Симпатии: 11

Спартанец У тебя нет случайно Summerslam,
1993
. Очень нужно.

Создавать темы 22-Июл-2012 11:46

[Профиль]  [ЛС] 
Показать сообщения:    
Ответить на тему

Текущее время: 22-Ноя 17:37

Часовой пояс: UTC + 5



Вы не можете начинать темы
Вы не можете отвечать на сообщения
Вы не можете редактировать свои сообщения
Вы не можете удалять свои сообщения
Вы не можете голосовать в опросах
Вы не можете прикреплять файлы к сообщениям
Вы не можете скачивать файлы