WWE Monday Night Raw 2012/06/25 [2012 г., Реслинг, HDTV]

Страницы :  1, 2  След.

Ответить на тему
 

Спартанец ®

Стаж: 5 лет 6 месяцев

Сообщений: 361

WWE Monday Night Raw 2012/06/25- Год выпуска: 2012
Вид спорта: Реслинг
Участники: Звезды WWE
Продолжительность: 01.30.27
Комментарий: Профессиональный (многоголосый, закадровый)
Язык комментариев: Русский
Описание: Еженедельный выпуск понедельничного RAW от 25/06/2012
Качество: HDTV
Видео кодек: x264 \ AVC
Аудио кодек: Advanced Audio Codec
Видео: MPEG4, Video, (H264), 704x400, 29.97fps, 1 400 Kbps
Аудио: AAC, 44100Hz, stereo, 128 Kbps

Кард

Daniel Bryan vs. Kane vs. CM Punk - Triple Threat Elimination Match
Brodus Clay vs. Big Show
Jack Swagger vs. Santino Marella
? vs. Heath Slater
Alberto Del Rio vs. Dolph Ziggler - #1 Contender's Match
Beth Phoenix, Aksana, AJ Lee, Maxine, Rosa Mendes, Alicia Fox, WWE Divas Champion Layla, Kaitlyn, Tamina Snuka, Natalya, Vickie Guerrero - Beach Battle Royal
? vs. John Cena

Скриншоты



МедиаИнфо

General
Format : MPEG-4
Format profile : Base Media
Codec ID : isom
File size : 992 MiB
Duration : 1h 30mn
Overall bit rate mode : Variable
Overall bit rate : 1 533 Kbps
Encoded date : UTC 2012-06-25 20:47:12
Tagged date : UTC 2012-06-25 20:47:12
Writing application : Yamb 2.1.0.0 [http://yamb.unite-video.com]
Video
ID : 1
Format : AVC
Format/Info : Advanced Video Codec
Format profile : [email protected]
Format settings, CABAC : Yes
Format settings, ReFrames : 4 frames
Codec ID : avc1
Codec ID/Info : Advanced Video Coding
Duration : 1h 30mn
Bit rate : 1 400 Kbps
Maximum bit rate : 2 581 Kbps
Width : 704 pixels
Height : 400 pixels
Display aspect ratio : 16:9
Frame rate mode : Constant
Frame rate : 29.970 fps
Color space : YUV
Chroma subsampling : 4:2:0
Bit depth : 8 bits
Scan type : Progressive
Bits/(Pixel*Frame) : 0.166
Stream size : 906 MiB (91%)
Writing library : x264 core 125 r2200 999b753
Encoding settings : cabac=1 / ref=5 / deblock=1:0:0 / analyse=0x3:0x113 / me=umh / subme=9 / psy=1 / psy_rd=1.00:0.00 / mixed_ref=1 / me_range=16 / chroma_me=1 / trellis=1 / 8x8dct=1 / cqm=0 / deadzone=21,11 / fast_pskip=1 / chroma_qp_offset=-2 / threads=12 / lookahead_threads=2 / sliced_threads=0 / nr=0 / decimate=1 / interlaced=0 / bluray_compat=0 / constrained_intra=0 / bframes=3 / b_pyramid=1 / b_adapt=2 / b_bias=0 / direct=3 / weightb=1 / open_gop=0 / weightp=2 / keyint=300 / keyint_min=30 / scenecut=40 / intra_refresh=0 / rc_lookahead=40 / rc=crf / mbtree=1 / crf=19.0 / qcomp=0.60 / qpmin=0 / qpmax=69 / qpstep=4 / vbv_maxrate=1500 / vbv_bufsize=1450 / crf_max=0.0 / nal_hrd=none / ip_ratio=1.40 / aq=1:1.00
Encoded date : UTC 2011-09-08 11:43:25
Tagged date : UTC 2012-06-25 20:49:00
Audio
ID : 2
Format : AAC
Format/Info : Advanced Audio Codec
Format profile : LC
Codec ID : 40
Duration : 1h 30mn
Bit rate mode : Variable
Bit rate : 128 Kbps
Maximum bit rate : 169 Kbps
Channel(s) : 2 channels
Channel positions : Front: L R
Sampling rate : 44.1 KHz
Compression mode : Lossy
Stream size : 82.8 MiB (8%)
Encoded date : UTC 2012-06-25 20:48:55
Tagged date : UTC 2012-06-25 20:49:00

Создавать темы 29-Июн-2012 21:10

[Профиль]  [ЛС] 

Emil_Safa

Стаж: 5 лет 2 месяца

Сообщений: 102

Beth Phoenix, Aksana, AJ Lee, Maxine, Rosa Mendes, Alicia Fox, WWE Divas Champion Layla, Kaitlyn, Tamina Snuka, Natalya, Vickie Guerrero - Beach Battle Royal
Интересный выпуск)))

Создавать темы 29-Июн-2012 21:13

[Профиль]  [ЛС] 

rey mysterio

Стаж: 5 лет 7 месяцев

Сообщений: 164

СПС))+1

Создавать темы 29-Июн-2012 21:15

[Профиль]  [ЛС] 

McFLY

Стаж: 5 лет 5 месяцев

Сообщений: 658

Симпатии: 22

Спартанец, огромнейшее СПАСИБИЩЕ!!!! Знай, что мы ценим твою работу :) так держать!!!

Создавать темы 29-Июн-2012 23:02

[Профиль]  [ЛС] 

Спартанец ®

Стаж: 5 лет 6 месяцев

Сообщений: 361

Поздравляю с модераторством te

Создавать темы 30-Июн-2012 13:02

[Профиль]  [ЛС] 

McFLY

Стаж: 5 лет 5 месяцев

Сообщений: 658

Симпатии: 22

tt Вот вот!!! Спасибо!

Создавать темы 30-Июн-2012 15:04

[Профиль]  [ЛС] 

Kroys

Стаж: 5 лет 10 месяцев

Сообщений: 187

Симпатии: 1

я что то не догоняю чё за фигня , Викки Гурэйро - как она стала ГМ ??????????? объясните мне

Создавать темы 30-Июн-2012 19:18

[Профиль]  [ЛС] 

McFLY

Стаж: 5 лет 5 месяцев

Сообщений: 658

Симпатии: 22

Да уж! Kroys, гамно случается :(

Создавать темы 30-Июн-2012 19:37

[Профиль]  [ЛС] 

Спартанец ®

Стаж: 5 лет 6 месяцев

Сообщений: 361

Кроу, она временно, не волнуйся ))Так то она безобидная в принципе. Её волнует только Зиги )) Никого увольнять не будет )

Создавать темы 30-Июн-2012 22:06

[Профиль]  [ЛС] 

Kroys

Стаж: 5 лет 10 месяцев

Сообщений: 187

Симпатии: 1

Да фигня , ГДЕ НАШ Mankind????? Mick Foley куда делся ?)

Создавать темы 30-Июн-2012 23:07

[Профиль]  [ЛС] 

NodirAgenT

Стаж: 6 лет 4 месяца

Сообщений: 204

Ждем
Одиночный поединок за титул Чемпиона WWE

Битва "Money in the Bank" за возможность боя за титул Чемпиона WWE

Битва "Money in the Bank" за возможность боя за титул Чемпиона Мира в тяжелом весе
Тайсон Кидд против Тенсая против Дэмиена Сэндоу против Сантино Марелла против Кристиана

_________________
Подпись отключена за нарушение правил форума

Создавать темы 30-Июн-2012 23:25

[Профиль]  [ЛС] 

McFLY

Стаж: 5 лет 5 месяцев

Сообщений: 658

Симпатии: 22

Давненько хотел спросить . Есть у кого-нибудь музыка выходов рестлеров на ринг.\? Может у кого завалялось?

Создавать темы 01-Июл-2012 15:52

[Профиль]  [ЛС] 

Спартанец ®

Стаж: 5 лет 6 месяцев

Сообщений: 361

У меня есть на некоторых ) Ну там Роб ван Дам, Ренди Ортон, Дольф Зиглер, Зак Райдер, Рэй Мистерио..мммм...вроде бы все :)

Создавать темы 01-Июл-2012 16:48

[Профиль]  [ЛС] 

rey mysterio

Стаж: 5 лет 7 месяцев

Сообщений: 164

у меня есть

Создавать темы 01-Июл-2012 16:52

[Профиль]  [ЛС] 

McFLY

Стаж: 5 лет 5 месяцев

Сообщений: 658

Симпатии: 22

rey mysterio, выложи если не трудно, думаю я не единственный кому будет интересно скачать !!!

Создавать темы 01-Июл-2012 17:11

[Профиль]  [ЛС] 
Показать сообщения:    
Ответить на тему

Текущее время: 21-Авг 07:55

Часовой пояс: UTC + 5



Вы не можете начинать темы
Вы не можете отвечать на сообщения
Вы не можете редактировать свои сообщения
Вы не можете удалять свои сообщения
Вы не можете голосовать в опросах
Вы не можете прикреплять файлы к сообщениям
Вы не можете скачивать файлы