Белоснежка: Месть гномов / Mirror Mirror (Тарсем Синх) [2012 г., фэнтези, драма, комедия, приключения, BDRip 720p]

Ответить на тему
 

sergelisky ®

Стаж: 6 лет 9 месяцев

Сообщений: 6

Симпатии: 4

Белоснежка: Месть гномов / Mirror Mirror
Год выпуска: 2012
Страна: США
Жанр: фэнтези, драма, комедия, приключения
Продолжительность: 01:45:52
Перевод: Профессиональный (полное дублирование) + Оригинальная звуковая дорожка (английская)
Субтитры: русские (полные, форсированные), английские (полные)
Режиссер: Тарсем Синх
В ролях: Джулия Робертс, Лили Коллинз, Арми Хаммер, Натан Лейн, Джордан Прентис, Марк Повинелли, Джо Гнофо, Дэнни Вудберн, Себастьян Сарасено, Мартин Клеббэ
Описание: Злая Королева, мечтающая выйти замуж за красивого и богатого Принца, хитростью выдворяет из дворца Белоснежку и берет власть в свои руки. Но милая девушка не погибла в темном дремучем лесу, а связалась с бандой гномов-разбойников. Вместе они отомстят Злодейке!
Формат: MKV
Качество: BDRip 720p (Источник: PGor / US Blu-Ray Remux / 1080p)
Видео: 1280x692 (1.85:1), 23.976 fps, [email protected] ~4000 kbps avg, 0.188 bit/pixel
Звук #1: 48 kHz, Digital Theater System, 3/2 (L,C,R,l,r) + LFE ch, ~1510 kbps avg (RUS)
Звук #2: 48 kHz, Digital Theater System, 3/2 (L,C,R,l,r) + LFE ch, ~1510 kbps avg (ENG)

MediaInfo

General
Complete name : E:\Films\Belosnezhka.2012.RUS.BDRip.720p.H264.DTS.mkv
Format : Matroska
File size : 5.19 GiB
Duration : 1h 45mn
Overall bit rate : 7 020 Kbps
Encoded date : UTC 2012-06-17 05:55:09
Writing application : mkvmerge v5.5.0 ('Healer') built on Apr 6 2012 21:43:24
Writing library : libebml v1.2.3 + libmatroska v1.3.0
Video
ID : 1
Format : AVC
Format/Info : Advanced Video Codec
Format profile : [email protected]
Format settings, CABAC : Yes
Format settings, ReFrames : 9 frames
Codec ID : V_MPEG4/ISO/AVC
Duration : 1h 45mn
Bit rate : 4 000 Kbps
Width : 1 280 pixels
Height : 692 pixels
Display aspect ratio : 1.850
Frame rate : 23.976 fps
Color space : YUV
Chroma subsampling : 4:2:0
Bit depth : 8 bits
Scan type : Progressive
Bits/(Pixel*Frame) : 0.188
Stream size : 2.85 GiB (55%)
Title : Белоснежка: Месть гномов / Mirror Mirror (2012) BDRip 720p | HQCLUB by Deep Fusion
Writing library : x264 core 125 r2200 999b753
Encoding settings : cabac=1 / ref=9 / deblock=1:-3:-3 / analyse=0x3:0x113 / me=umh / subme=10 / psy=1 / psy_rd=1.00:0.02 / mixed_ref=1 / me_range=48 / chroma_me=1 / trellis=2 / 8x8dct=1 / cqm=0 / deadzone=21,11 / fast_pskip=0 / chroma_qp_offset=-5 / threads=6 / lookahead_threads=1 / sliced_threads=0 / nr=0 / decimate=1 / interlaced=0 / bluray_compat=0 / constrained_intra=0 / bframes=12 / b_pyramid=2 / b_adapt=2 / b_bias=0 / direct=1 / weightb=1 / open_gop=0 / weightp=2 / keyint=240 / keyint_min=23 / scenecut=40 / intra_refresh=0 / rc_lookahead=60 / rc=2pass / mbtree=0 / bitrate=4000 / ratetol=1.0 / qcomp=0.60 / qpmin=10 / qpmax=69 / qpstep=4 / cplxblur=20.0 / qblur=0.5 / vbv_maxrate=62500 / vbv_bufsize=50000 / nal_hrd=none / ip_ratio=1.40 / pb_ratio=1.30 / aq=1:0.80
Language : English
Audio #1
ID : 2
Format : DTS
Format/Info : Digital Theater Systems
Codec ID : A_DTS
Duration : 1h 45mn
Bit rate mode : Constant
Bit rate : 1 510 Kbps
Channel(s) : 6 channels
Channel positions : Front: L C R, Side: L R, LFE
Sampling rate : 48.0 KHz
Bit depth : 16 bits
Stream size : 1.12 GiB (22%)
Title : Профессиональный (полное дублирование)
Language : Russian
Audio #2
ID : 3
Format : DTS
Format/Info : Digital Theater Systems
Codec ID : A_DTS
Duration : 1h 45mn
Bit rate mode : Constant
Bit rate : 1 510 Kbps
Channel(s) : 6 channels
Channel positions : Front: L C R, Side: L R, LFE
Sampling rate : 48.0 KHz
Bit depth : 24 bits
Stream size : 1.12 GiB (22%)
Title : Оригинальная звуковая дорожка (английская)
Language : English
Text #1
ID : 4
Format : UTF-8
Codec ID : S_TEXT/UTF8
Codec ID/Info : UTF-8 Plain Text
Title : Русские (форсированные)
Language : Russian
Text #2
ID : 5
Format : UTF-8
Codec ID : S_TEXT/UTF8
Codec ID/Info : UTF-8 Plain Text
Title : Русские (полные)
Language : Russian
Text #3
ID : 6
Format : UTF-8
Codec ID : S_TEXT/UTF8
Codec ID/Info : UTF-8 Plain Text
Title : Английские (полные)
Language : English
Menu
00:00:00.000 : :Chapter 01
00:03:51.981 : :Chapter 02
00:07:54.891 : :Chapter 03
00:11:39.573 : :Chapter 04
00:14:01.924 : :Chapter 05
00:18:44.873 : :Chapter 06
00:23:12.432 : :Chapter 07
00:26:26.418 : :Chapter 08
00:31:15.164 : :Chapter 09
00:34:40.369 : :Chapter 10
00:38:48.492 : :Chapter 11
00:45:02.991 : :Chapter 12
00:47:54.288 : :Chapter 13
00:50:56.844 : :Chapter 14
00:55:36.623 : :Chapter 15
00:59:01.412 : :Chapter 16
01:02:56.981 : :Chapter 17
01:07:48.731 : :Chapter 18
01:13:21.563 : :Chapter 19
01:16:34.590 : :Chapter 20
01:21:38.350 : :Chapter 21
01:27:50.055 : :Chapter 22
01:31:38.033 : :Chapter 23
01:36:01.338 : :Chapter 24
01:45:52.345 : :Chapter 25

Скриншоты




Создавать темы 30-Июн-2012 01:03

[Профиль]  [ЛС] 
Показать сообщения:    
Ответить на тему

Текущее время: 20-Авг 22:32

Часовой пояс: UTC + 5



Вы не можете начинать темы
Вы не можете отвечать на сообщения
Вы не можете редактировать свои сообщения
Вы не можете удалять свои сообщения
Вы не можете голосовать в опросах
Вы не можете прикреплять файлы к сообщениям
Вы не можете скачивать файлы