WWE Friday Night Smackdown 2012/06/29 [2012 г., Реслинг, HDTV]

Ответить на тему
 

Спартанец ®

Стаж: 5 лет 10 месяцев

Сообщений: 361

WWE Friday Night Smackdown 2012/06/29
Год выпуска: 2012
Вид спорта: Реслинг
Участники: Звезды WWE
Продолжительность: 01.28.27
Комментарий: Профессиональный (многоголосый, закадровый)
Язык комментариев: Русский
Описание: Еженедельное Шоу Friday Night Smackdown. Выпуск от 29-го июня 2012 года
Качество: HDTV
Формат: Mр4
Видео кодек: x264 \ AVC
Аудио кодек: AAC
Видео: MPEG4, Video, (H264), 704x400, 29.97fps, 1 433 Kbps
Аудио: AAC, 44100Hz, stereo, 1411kbps, 128 Kbps

Кард

Non-Title Match: Layla vs. A.J.
Ryback(задрал уже) in action
Money in the Bank Qualifying Match: Zack Ryder vs. Damien Sandow
Money in the Bank Qualifying Match: Jack Swagger vs. Tyson Kidd
Money in the Bank Qualifying Match: Christian and Santino Marella vs. Cody Rhodes and David Otunga
Money in the Bank Qualifying Match: Tensai vs. Justin Gabriel
World Title Match: Sheamus vs. Alberto Del Rio vs. Dolph Ziggler

Скриншоты



МедиаИнфо

General
Format : MPEG-4
Format profile : Base Media
Codec ID : isom
File size : 991 MiB
Duration : 1h 28mn
Overall bit rate mode : Variable
Overall bit rate : 1 566 Kbps
Encoded date : UTC 2012-06-28 11:45:11
Tagged date : UTC 2012-06-28 11:45:11
Writing application : Yamb 2.1.0.0 [http://yamb.unite-video.com]
Video
ID : 1
Format : AVC
Format/Info : Advanced Video Codec
Format profile : [email protected]
Format settings, CABAC : Yes
Format settings, ReFrames : 4 frames
Codec ID : avc1
Codec ID/Info : Advanced Video Coding
Duration : 1h 28mn
Bit rate : 1 433 Kbps
Maximum bit rate : 2 661 Kbps
Width : 704 pixels
Height : 400 pixels
Display aspect ratio : 16:9
Frame rate mode : Constant
Frame rate : 29.970 fps
Color space : YUV
Chroma subsampling : 4:2:0
Bit depth : 8 bits
Scan type : Progressive
Bits/(Pixel*Frame) : 0.170
Stream size : 907 MiB (92%)
Writing library : x264 core 122 r2184 5c85e0a
Encoding settings : cabac=1 / ref=5 / deblock=1:0:0 / analyse=0x3:0x113 / me=umh / subme=9 / psy=1 / psy_rd=1.00:0.00 / mixed_ref=1 / me_range=16 / chroma_me=1 / trellis=1 / 8x8dct=1 / cqm=0 / deadzone=21,11 / fast_pskip=1 / chroma_qp_offset=-2 / threads=12 / sliced_threads=0 / nr=0 / decimate=1 / interlaced=0 / bluray_compat=0 / constrained_intra=0 / bframes=3 / b_pyramid=1 / b_adapt=2 / b_bias=0 / direct=3 / weightb=1 / open_gop=0 / weightp=2 / keyint=300 / keyint_min=30 / scenecut=40 / intra_refresh=0 / rc_lookahead=40 / rc=crf / mbtree=1 / crf=19.0 / qcomp=0.60 / qpmin=0 / qpmax=69 / qpstep=4 / vbv_maxrate=1500 / vbv_bufsize=1450 / crf_max=0.0 / nal_hrd=none / ip_ratio=1.40 / aq=1:1.00
Encoded date : UTC 2011-09-08 11:43:25
Tagged date : UTC 2012-06-28 11:46:18
Audio
ID : 2
Format : AAC
Format/Info : Advanced Audio Codec
Format profile : LC
Codec ID : 40
Duration : 1h 28mn
Bit rate mode : Variable
Bit rate : 128 Kbps
Maximum bit rate : 218 Kbps
Channel(s) : 2 channels
Channel positions : Front: L R
Sampling rate : 44.1 KHz
Compression mode : Lossy
Stream size : 81.0 MiB (8%)
Encoded date : UTC 2012-06-28 11:46:09
Tagged date : UTC 2012-06-28 11:46:18

Создавать темы 01-Июл-2012 17:01

[Профиль]  [ЛС] 

NodirAgenT

Стаж: 6 лет 8 месяцев

Сообщений: 204

Ryback(задрал уже) in action Какой То новый Вид Боя Посмареть надо бы Мама моя 1 раз увидала как он 15 летних избивает Это жесть

_________________
Подпись отключена за нарушение правил форума

Создавать темы 01-Июл-2012 20:00

[Профиль]  [ЛС] 

Спартанец ®

Стаж: 5 лет 10 месяцев

Сообщений: 361

bu Райбек bu реально bu просто bu задрал bu bu bu

Создавать темы 01-Июл-2012 20:03

[Профиль]  [ЛС] 

LiX

Стаж: 6 лет 6 месяцев

Сообщений: 254

Симпатии: 6

Тока что посмотрел по телеку показали все бои кроме Money in the Bank Qualifying Match: Christian and Santino Marella vs. Cody Rhodes and David Otunga(победителей знаю) и Райбека!
Кто видел отпишитесь насчёт Райбека что там, как там!

Создавать темы 01-Июл-2012 22:30

[Профиль]  [ЛС] 

Emil_Safa

Стаж: 5 лет 6 месяцев

Сообщений: 102

Cпасибо Спартанец,мне интересно куда делись Джон Моррисон,ТэдТибиаси,Чавво Гуерро?
Знаю что Марк Генри с травмой,вот жду Рея Мистерио))

Создавать темы 02-Июл-2012 21:03

[Профиль]  [ЛС] 

Спартанец ®

Стаж: 5 лет 10 месяцев

Сообщений: 361

У всех либо травмы, либо дисквалификация ) Летом вернутся многие pc

Создавать темы 02-Июл-2012 22:25

[Профиль]  [ЛС] 

NodirAgenT

Стаж: 6 лет 8 месяцев

Сообщений: 204

А вы смарел Саммерслем панк и Сина Сина Не проиграл он ногу вед на канате Держал епт Посмарите конец хорошенько крупным плааном епт

_________________
Подпись отключена за нарушение правил форума

Создавать темы 02-Июл-2012 22:56

[Профиль]  [ЛС] 

NodirAgenT

Стаж: 6 лет 8 месяцев

Сообщений: 204

1 СМ Панк (с) против Дэниела Брайана
Одиночный поединок за титул Чемпиона WWE со специальным рефери Эй Джей
Брайан Кричал nO NO NO NO Ток Не Эй ДЖЕЙ
2Тайсон Кидд против Тенсая против Дэмиена Сэндоу против Сантино Мареллы против Кристиана против TBA против TBA против TBA.
Битва "Money in the Bank" за возможность боя за титул Чемпиона Мира в тяжелом весе
3 Биг Шоу против Джона Сины против Криса Джерико против Кейна против TBA против TBA против TBA против TBA.
Битва "Money in the Bank" за возможность боя за титул Чемпиона WWE

_________________
Подпись отключена за нарушение правил форума

Создавать темы 02-Июл-2012 23:00

[Профиль]  [ЛС] 

NodirAgenT

Стаж: 6 лет 8 месяцев

Сообщений: 204

Плисс Залейте Фильм Джон Сины из Самерсллема 2010 и Еще пару штук в Этот Разде Еси мооно сообщите ееси зальете
И еси Мно посморите,
Мы не требуем мы просим и Обязательно пишем Еси Моно ( Посмотри На досуге) И Если моно Ребят посмотрите выберемм 1 из Этих ппв И попросим Спартанцца И спартанец Не Забывай Про реслманию 24 и 25 Еси моно Залей как самерслем оба сразу СПС БИГ ЗА ВСЕХ СРАЗУ
:nf:

_________________
Подпись отключена за нарушение правил форума

Создавать темы 03-Июл-2012 00:11

[Профиль]  [ЛС] 

Emil_Safa

Стаж: 5 лет 6 месяцев

Сообщений: 102

Кто-то просил музыку рестлеров могу скинуть!

Создавать темы 03-Июл-2012 09:08

[Профиль]  [ЛС] 

Emil_Safa

Стаж: 5 лет 6 месяцев

Сообщений: 102

[url='http://file.nnm.uz/?d=4FF281751']Музыка рестлеров![/url]

Создавать темы 03-Июл-2012 10:19

[Профиль]  [ЛС] 

Undertaker

Стаж: 5 лет 11 месяцев

Сообщений: 30

Cпасибо Спартанец,мне интересно куда делись Джон Моррисон,ТэдТибиаси,Чавво Гуерро?
Знаю что Марк Генри с травмой,вот жду Рея Мистерио))
Чаво и Моррисон ушли из WWE!!!

Создавать темы 03-Июл-2012 12:45

[Профиль]  [ЛС] 

Emil_Safa

Стаж: 5 лет 6 месяцев

Сообщений: 102

Чаво и Моррисон ушли из WWE!!!
Жалко,Моррисон был мой любимый боец-прыгун(

Создавать темы 03-Июл-2012 13:47

[Профиль]  [ЛС] 
Показать сообщения:    
Ответить на тему

Текущее время: 17-Дек 05:24

Часовой пояс: UTC + 5



Вы не можете начинать темы
Вы не можете отвечать на сообщения
Вы не можете редактировать свои сообщения
Вы не можете удалять свои сообщения
Вы не можете голосовать в опросах
Вы не можете прикреплять файлы к сообщениям
Вы не можете скачивать файлы