[#201] Ходячий замок / Howl's Moving Castle / Hauru no ugoku shiro (Хаяо Миядзаки / Hayao Miyazaki) [2004 г., фэнтези, мелодрама, приключения, DVDRip]

Страницы :  1, 2  След.

Ответить на тему
 

nadezcda ®

Стаж: 7 лет 1 месяц

Сообщений: 454

Симпатии: 303

-Ходячий замок / Howl's Moving Castle-IMDb: Top 250: #201- Год выпуска: 2004
Страна: Япония
Жанр: фэнтези, мелодрама, приключения
Продолжительность: 01:59:09
Перевод: Профессиональный (полное дублирование - ОРТ)
Режиссер: Хаяо Миядзаки / Hayao Miyazaki
-
Описание: Злая ведьма заточила 18-летнюю Софи в тело старухи. В поисках того, кто поможет ей вернуться к своему облику, Софи знакомится с могущественным волшебником Хаулом и его демоном Кальцифером. Кальцифер должен служить Хаулу по договору, условия которого он не может разглашать. Девушка и демон решают помочь друг другу избавиться от злых чар…- 
-Качество: DVDRip
Формат: MKV
Видео кодек: DivX
Аудио кодек: MPEG Audio
Видео: Video: DivX 5, 608x320, 23.976fps, 1 158 Kbps
Аудио: Audio: MPEG Audio, Layer 3, 48000Hz stereo, 192 Kbps

Знаете ли вы, что...

  • Мультфильм «Ходячий замок» создан по мотивам сказочной повести английской писательницы Дианы Уинн Джонс.
  • Перед началом съемок команда аниматоров путешествовала по Европе в поисках подходящих пейзажей для картины. Они нашли их в
  • восточной провинции Эльзас во Франции.
  • По словам режиссера мультфильма Хайао Миядзаки, прообразом ходячего замка послужила избушка на курьих ножках из русских сказок.
  • Дословный перевод оригинального названия - «Ходячий замок Хаула».
  • Первоначально фильм должен был снимать Хосода Мамору, однако вместо него делать это пришлось Миядзаки.
  • Прежде чем состоялся национальный релиз в Японии, «Ходячий замок» был показан на 61-м Венецианском Международном Кинофестивале в 2004 г. Это была первая японская анимация, когда-либо открывавшая фестиваль. Картина получила приз — «Золотую Озеллу».
  • MediaInfo

    General
    Unique ID : 204451977347982714822816459303946483269 (0x99D004BECC9E14A6AB67FC95F4A2F645)
    Complete name : D:\Cinema\mp4\диск 3\Hodyachiy_Zamok.mkv
    Format : Matroska
    Format version : Version 2
    File size : 1.15 GiB
    Duration : 1h 59mn
    Overall bit rate : 1 378 Kbps
    Encoded date : UTC 2012-07-01 17:04:15
    Writing application : mkvmerge v4.4.0 ('Die Wiederkehr') сборка от Oct 31 2010 21:52:48
    Writing library : libebml v1.0.0 + libmatroska v1.0.0
    Video
    ID : 2
    Format : MPEG-4 Visual
    Format settings, BVOP : Yes
    Format settings, QPel : No
    Format settings, GMC : No warppoints
    Format settings, Matrix : Default (H.263)
    Codec ID : DX50
    Codec ID/Hint : DivX 5
    Duration : 1h 59mn
    Bit rate : 1 158 Kbps
    Width : 608 pixels
    Height : 320 pixels
    Display aspect ratio : 1.900
    Frame rate : 23.976 fps
    Color space : YUV
    Chroma subsampling : 4:2:0
    Bit depth : 8 bits
    Scan type : Progressive
    Compression mode : Lossy
    Bits/(Pixel*Frame) : 0.248
    Stream size : 987 MiB (84%)
    Writing library : DivX 5.0.5 (UTC 2003-04-24)
    Default : Yes
    Forced : No
    Audio
    ID : 1
    Format : MPEG Audio
    Format version : Version 1
    Format profile : Layer 3
    Mode : Joint stereo
    Mode extension : MS Stereo
    Muxing mode : Header stripping
    Codec ID : A_MPEG/L3
    Codec ID/Hint : MP3
    Duration : 1h 58mn
    Bit rate mode : Constant
    Bit rate : 192 Kbps
    Channel(s) : 2 channels
    Sampling rate : 48.0 KHz
    Compression mode : Lossy
    Delay relative to video : 12s 500ms
    Stream size : 163 MiB (14%)
    Writing library : LAME3.97
    Encoding settings : -m j -V 4 -q 2 -lowpass 18.6 -b 192
    Default : Yes
    Forced : No
    -

    Скриншоты



    Создавать темы 01-Июл-2012 23:16

    [Профиль]  [ЛС] 

    IQBOT

    Стаж: 6 лет 10 месяцев

    Сообщений: 449

    Симпатии: 81

    О, классный мульт! Смотрела давно на сборнике аниме, не думала, что зацепит.

    Создавать темы 02-Июл-2012 07:07

    [Профиль]  [ЛС] 

    Tony R.

    Стаж: 8 лет 11 месяцев

    Сообщений: 132

    Симпатии: 20

    ВОт ещё бы в 1080р все эти киношки из топ 250
    А в таком качестве у любого провайдера в фильмовых хранилищах лежат :(

    Создавать темы 04-Июл-2012 21:12

    [Профиль]  [ЛС] 

    rustam96

    Стаж: 5 лет 7 месяцев

    Сообщений: 28

    Симпатии: 9

    мой любимый японский мульт

    Создавать темы 07-Июл-2012 14:19

    [Профиль]  [ЛС] 

    batka

    Стаж: 5 лет 3 месяца

    Сообщений: 20

    скорости даем

    Создавать темы 28-Авг-2012 19:54

    [Профиль]  [ЛС] 

    pumma

    Стаж: 6 лет 10 месяцев

    Сообщений: 64

    Симпатии: 1

    Мля 25 сидов, а скорость ни фига

    Создавать темы 29-Окт-2012 12:04

    [Профиль]  [ЛС] 

    Барадач

    Стаж: 5 лет 1 месяц

    Сообщений: 22

    самый классный аниме

    Создавать темы 22-Ноя-2012 22:08

    [Профиль]  [ЛС] 

    janrok

    Стаж: 5 лет 9 месяцев

    Сообщений: 290

    Симпатии: 27

    всем кто 2 февраля 2013года стоял на раздачи спасибо автору отдельные респект!!!

    Создавать темы 02-Фев-2013 15:28

    [Профиль]  [ЛС] 

    LeeV

    Стаж: 7 лет 1 месяц

    Сообщений: 75

    Симпатии: 6

    Спс давно искал этот Аниме !

    Создавать темы 24-Мар-2013 22:52

    [Профиль]  [ЛС] 

    LeeV

    Стаж: 7 лет 1 месяц

    Сообщений: 75

    Симпатии: 6

    раздача Крутоя спс !!!

    Создавать темы 25-Мар-2013 10:49

    [Профиль]  [ЛС] 

    brutal_beat

    Стаж: 4 года 6 месяцев

    Сообщений: 9

    дайте скорости плз!

    Создавать темы 13-Июл-2013 12:03

    [Профиль]  [ЛС] 

    slayer18

    Стаж: 5 лет 1 месяц

    Сообщений: 9

    Дайте скорости пожалуйста!

    Создавать темы 16-Янв-2014 20:52

    [Профиль]  [ЛС] 

    coolbola

    Стаж: 5 лет 10 месяцев

    Сообщений: 10

    У меня нет звука,в чем проблема не подскажите ?

    Создавать темы 18-Апр-2014 10:45

    [Профиль]  [ЛС] 

    Актам Денмухаммадиев

    Стаж: 4 года 9 месяцев

    Сообщений: 113

    у меня тоже нету звука!!!

    Создавать темы 04-Авг-2014 18:44

    [Профиль]  [ЛС] 

    psiholog

    Стаж: 5 лет 3 месяца

    Сообщений: 10

    Симпатии: 1

    и у меня нет звука? в чем проблема?

    Создавать темы 20-Окт-2014 19:34

    [Профиль]  [ЛС] 
    Показать сообщения:    
    Ответить на тему

    Текущее время: 18-Дек 23:43

    Часовой пояс: UTC + 5



    Вы не можете начинать темы
    Вы не можете отвечать на сообщения
    Вы не можете редактировать свои сообщения
    Вы не можете удалять свои сообщения
    Вы не можете голосовать в опросах
    Вы не можете прикреплять файлы к сообщениям
    Вы не можете скачивать файлы