Мистер и миссис Игрок / Lan Du Fu Dou Lan Du Qi (Вон Цзин) [2012 г., комедия, WebRip]

Ответить на тему
 

Jentelman ®

Стаж: 5 лет 9 месяцев

Сообщений: 48

Мистер и миссис Игрок / Lan Du Fu Dou Lan Du Qi
Год выпуска: 2012
Страна: Гонконг
Жанр: комедия
Продолжительность: 01:40:20
Перевод: Любительский (одноголосый)
Режиссер: Вон Цзин
В ролях: Чэпман То, Фиона Сит, Кар-Йинг Лау, Мими Жу, Чао Вэнь, Филип Нг, Ван Чи, Ву Йин, Харриет Енг, Man-Wai Wong...
Описание: Как может складываться жизнь, если у тебя женское имя Шу Ци, а ты мужчина, который больше всего на свете любит азартные игры. Маджонг, скачки, рулетка, макао, блек джек, футбол и так 24 часа в сутки 7 дней в неделю. Конечно, ты неминуемо должен встретить Флору Чжан, которая больше всего на свете любит играть. Встреча в казино в Макао, любовь, женитьба, рождение дочери и игра, игра, игра. И что дальше?
Качество: Web- Rip
Формат: AVI
Видео кодек: XviD
Аудио кодек: MPEG Audio
Видео: Xvid 320x180 350 Kbps 25fps
Аудио: MPEG Audio Layer 3 44100Hz stereo 128kbps

Media Info

General
Format : AVI
Format/Info : Audio Video Interleave
File size : 352 MiB
Duration : 1h 40mn
Overall bit rate : 490 Kbps
Writing application : MEncoder SVN-r30881(20100311-gcc4.3.3)
Writing library : MPlayer
Video
ID : 0
Format : MPEG-4 Visual
Format profile : Advanced [email protected]
Format settings, BVOP : 2
Format settings, QPel : No
Format settings, GMC : No warppoints
Format settings, Matrix : Default (H.263)
Codec ID : XVID
Codec ID/Hint : XviD
Duration : 1h 40mn
Bit rate : 350 Kbps
Width : 320 pixels
Height : 180 pixels
Display aspect ratio : 16:9
Frame rate : 25.000 fps
Color space : YUV
Chroma subsampling : 4:2:0
Bit depth : 8 bits
Scan type : Progressive
Compression mode : Lossy
Bits/(Pixel*Frame) : 0.243
Stream size : 251 MiB (71%)
Writing library : XviD 1.2.1 (UTC 2008-12-04)
Audio
ID : 1
Format : MPEG Audio
Format version : Version 1
Format profile : Layer 3
Mode : Joint stereo
Mode extension : MS Stereo
Codec ID : 55
Codec ID/Hint : MP3
Duration : 1h 40mn
Bit rate mode : Constant
Bit rate : 128 Kbps
Channel(s) : 2 channels
Sampling rate : 44.1 KHz
Compression mode : Lossy
Delay relative to video : 40ms
Stream size : 91.9 MiB (26%)
Alignment : Aligned on interleaves
Interleave, duration : 26 ms (0.65 video frame)
Interleave, preload duration : 522 ms
Writing library : LAME3.98ЄЄЄЄЄЄЄЄЄЄЄЄ

Скриншоты



Последний раз редактировалось: Jentelman (2012-07-02 21:41), всего редактировалось 2 раз(а)

Создавать темы 02-Июл-2012 08:19

[Профиль]  [ЛС] 

Ruslan1110

Стаж: 6 лет 11 месяцев

Сообщений: 112

Симпатии: 2

скриныснова залей ! в нормальном качестве ..... и все будет тип топ .....

Создавать темы 02-Июл-2012 09:15

[Профиль]  [ЛС] 

Maxwn

Стаж: 6 лет 9 месяцев

Сообщений: 243

Симпатии: 10

скриныснова залей ! в нормальном качестве ..... и все будет тип топ .....
размер видео 320x180... соответственно размер скринов....

Создавать темы 02-Июл-2012 09:29

[Профиль]  [ЛС] 

Jentelman ®

Стаж: 5 лет 9 месяцев

Сообщений: 48

Ruslan1110, скриншот должен быть равным с описанием...
Maxwn, спасибо за ответ))

Создавать темы 02-Июл-2012 14:25

[Профиль]  [ЛС] 

Understuped

Стаж: 6 лет 5 месяцев

Сообщений: 107

Модеры исправте релиз обозначен как не проверенный но его уже проверили

Создавать темы 02-Июл-2012 20:02

[Профиль]  [ЛС] 

EmeraldBay

Стаж: 6 лет 9 месяцев

Сообщений: 43

чета с новыми нормальными релизами затишье. заслуженные релизеры в отпуске? :)

Создавать темы 02-Июл-2012 22:14

[Профиль]  [ЛС] 

Jentelman ®

Стаж: 5 лет 9 месяцев

Сообщений: 48

EmeraldBay, и плюс новые кинохиты пока нету((( приходиться добавить среднее кино)))

Создавать темы 02-Июл-2012 22:24

[Профиль]  [ЛС] 

Sumbuloy

Стаж: 5 лет 8 месяцев

Сообщений: 3

SUPER-Устное предупреждение! Правила
2.3. Заниматься оверпостингом и размножением офф-топиков.
© Pendalf

Создавать темы 07-Июл-2012 06:30

[Профиль]  [ЛС] 

antypk

Стаж: 5 лет 8 месяцев

Сообщений: 106

Симпатии: 14

Раздавайте уже :D

Создавать темы 25-Авг-2012 18:18

[Профиль]  [ЛС] 
Показать сообщения:    
Ответить на тему

Текущее время: 17-Окт 23:40

Часовой пояс: UTC + 5



Вы не можете начинать темы
Вы не можете отвечать на сообщения
Вы не можете редактировать свои сообщения
Вы не можете удалять свои сообщения
Вы не можете голосовать в опросах
Вы не можете прикреплять файлы к сообщениям
Вы не можете скачивать файлы