Труп в белом саване дрожит, но продолжает принимать ванну / Pocong mandi goyang pinggul (Yoyok) [2011 г., ужасы, комедия, Web Rip]

Ответить на тему
 

Jentelman ®

Стаж: 5 лет 9 месяцев

Сообщений: 48

Труп в белом саване дрожит, но продолжает принимать ванну / Pocong mandi goyang pinggul
Год выпуска: 2011
Страна: Индонезия
Жанр: ужасы, комедия
Продолжительность: 01:07:18
Перевод: Любительский (одноголосый)
Режиссер: Yoyok
В ролях: Ucok Baba, Annisa Bahar, Тата Дадо, Tatang Gepeng, Саша Грэй, Sheza Idris, Чанд Келвин, Бейби Маргарета, Mpok Nori, Andreano Philip...
Описание: Возвращаясь из ночного клуба, пьяный Ферди попадает в аварию. Месяц спустя героя фильма ужасов «Труп в белом саване дрожит, но продолжает принимать ванну» начинают преследовать призраки. Одновременно, Ферди часто общается с Сашей в виртуальном мире. Его семья чувствует, что происходит что-то нехорошее, и пытается обвинить во всем Сашу.
Качество: Web- Rip
Формат: AVI
Видео кодек: XviD
Видео: Xvid 720x480 511 Kbps 25fps
Аудио: MPEG Audio Layer 3 44100Hz stereo 128kbps

M.I.

General
vannu.avi
Format : AVI
Format/Info : Audio Video Interleave
File size : 314 MiB
Duration : 1h 7mn
Overall bit rate : 652 Kbps
Writing application : MEncoder SVN-r30881(20100311-gcc4.3.3)
Writing library : MPlayer
Video
ID : 0
Format : MPEG-4 Visual
Format profile : Advanced [email protected]
Format settings, BVOP : 2
Format settings, QPel : No
Format settings, GMC : No warppoints
Format settings, Matrix : Default (H.263)
Codec ID : XVID
Codec ID/Hint : XviD
Duration : 1h 7mn
Bit rate : 511 Kbps
Width : 720 pixels
Height : 480 pixels
Display aspect ratio : 3:2
Frame rate : 25.000 fps
Standard : NTSC
Color space : YUV
Chroma subsampling : 4:2:0
Bit depth : 8 bits
Scan type : Progressive
Compression mode : Lossy
Bits/(Pixel*Frame) : 0.059
Stream size : 246 MiB (78%)
Writing library : XviD 1.2.1 (UTC 2008-12-04)
Audio
ID : 1
Format : MPEG Audio
Format version : Version 1
Format profile : Layer 3
Mode : Joint stereo
Mode extension : MS Stereo
Codec ID : 55
Codec ID/Hint : MP3
Duration : 1h 7mn
Bit rate mode : Constant
Bit rate : 128 Kbps
Channel(s) : 2 channels
Sampling rate : 44.1 KHz
Compression mode : Lossy
Delay relative to video : 40ms
Stream size : 61.6 MiB (20%)
Alignment : Aligned on interleaves
Interleave, duration : 26 ms (0.65 video frame)
Interleave, preload duration : 522 ms
Writing library : LAME3.98

Скриншоты

Создавать темы 02-Июл-2012 08:27

[Профиль]  [ЛС] 

Danzo.Lol

Стаж: 5 лет 4 месяца

Сообщений: 58

Че за фильм такой 314 мб ???

Создавать темы 22-Июл-2012 02:20

[Профиль]  [ЛС] 

Tony R.

Стаж: 8 лет 9 месяцев

Сообщений: 132

Симпатии: 20

Порно актриса метит в Голливуд bj

Создавать темы 25-Июл-2012 22:39

[Профиль]  [ЛС] 

jaska-3d

Стаж: 5 лет 10 месяцев

Сообщений: 250

Симпатии: 25

Скачавшие (Скачан: 67 раз) как фильм ?

Создавать темы 25-Июл-2012 23:37

[Профиль]  [ЛС] 

MR.JOJO

Стаж: 5 лет 3 месяца

Сообщений: 38

Симпатии: 2

качаю!! дайте скорость

Создавать темы 10-Авг-2012 10:10

[Профиль]  [ЛС] 

MR.JOJO

Стаж: 5 лет 3 месяца

Сообщений: 38

Симпатии: 2

уменя не качает !! чтото уменя на компе красная штука пояилась что это...
не качает мой комп вот уже 3 день!!

Создавать темы 10-Авг-2012 16:10

[Профиль]  [ЛС] 

knyaz31337

Стаж: 6 лет 5 месяцев

Сообщений: 396

Симпатии: 20

MR.JOJO, проверь свой рейтинг.

Создавать темы 10-Авг-2012 16:21

[Профиль]  [ЛС] 
Показать сообщения:    
Ответить на тему

Текущее время: 24-Окт 01:56

Часовой пояс: UTC + 5



Вы не можете начинать темы
Вы не можете отвечать на сообщения
Вы не можете редактировать свои сообщения
Вы не можете удалять свои сообщения
Вы не можете голосовать в опросах
Вы не можете прикреплять файлы к сообщениям
Вы не можете скачивать файлы