Ван-Пис: Фильм первый / One Piece: The Great Gold Pirate (Симидзу Ацудзи) [без хардсаба] [RUS(int), JAP+SUB] [2000 г., приключения, комедия, фэнтези, BDRip-AVC]

Ответить на тему
 

dominion69 ®

Стаж: 6 лет 7 месяцев

Сообщений: 324

Симпатии: 7

The Great Gold Pirate
-Год выпуска: 2000-Страна: Япония-Тип: короткометражный фильм-Жанр: приключения, комедия, фэнтези-Жанры AniDB: Action, Adventure, Comedy, Fantasy, Shounen, Super Power, Underworld-Продолжительность: 50 мин-Перевод: Субтитры + Озвучка-Режиссёр: Симидзу Дзюндзи-Снято по манге: Ван-Пис-Автор оригинала: Ода Эйитиро-Студия:
Описание: Когда-то на далёком востоке бороздил моря человек по имени Унан. Легенда гласит, что в бесчисленных битвах Унан награбил целую гору золота, которая ночами освещает океан не хуже солнца. С течением лет жизнь Унана угасла, но перед смертью великий Золотой Пират спрятал своё сокровище на одном острове, а кто-то из его команды нарисовал карту. Тот, кто раздобудет эту карту, сможет найти и золото.
Многие пираты мечтают найти легендарный остров! И вот карта попадает в руки команды Соломенной Шляпы…
Действие фильма происходит после событий 18-го эпизода оригинального сериала.
-Качество: BDRip
Формат: MKV
Тип видео: Без хардсаба-Состав релиза:
Видео: 852x480, ~1950 Kbps, 23.976 fps, x264
энкод: A_warrior_of_light-Аудио, Russian: mp3, 48000Hz, 2.0ch, 192 Kbps CBR
Озвучивание: одноголосый закадровый, Persona99, в составе контейнера-Аудио, Russian: AC3, 48000Hz, 2.0ch, 384 Kbps CBR
Озвучивание: одноголосый закадровый, Е. Лурье, в составе контейнера-Аудио, Russian: AAC, 48000Hz, 2.0ch, 230 Kbps CBR
Озвучивание: многоголосая закадровая, Shachiburi, ITLM, Silv, Say, Eladiel, Jam, Lupin [Animedia], в составе контейнера-Аудио, Japanese: AC3, 48000Hz, 2.0ch, 384 Kbps CBR
Оригинальная дорожка, в составе контейнера-Субтитры Russian, ass-формат, в составе контейнера
Перевод: Куваев Максим-Для нормального воспроизведения видео настоятельно рекомендуется использовать KMplayer или K-Lite Codec Pack
-

Скриншоты

MI

General
Unique ID : 247586061875295595839471350237383019403 (0xBA43574E41BED2A18122405FED9ECB8B)
Complete name : D:\АНИМЕ\One Piece The Great Gold Pirate [BDRip 480p AC3].mkv
Format : Matroska
File size : 1.15 GiB
Duration : 51mn 0s
Overall bit rate : 3 231 Kbps
Encoded date : UTC 2011-12-19 09:19:18
Writing application : mkvmerge v4.1.1 ('Bouncin' Back') сборка от Jul 3 2010 22:54:08
Writing library : libebml v1.0.0 + libmatroska v1.0.0
Cover : Yes
Video
ID : 1
Format : AVC
Format/Info : Advanced Video Codec
Format profile : [email protected]
Format settings, CABAC : Yes
Format settings, ReFrames : 9 frames
Format settings, GOP : M=5, N=24
Codec ID : V_MPEG4/ISO/AVC
Duration : 51mn 0s
Bit rate : 1 950 Kbps
Width : 852 pixels
Height : 480 pixels
Display aspect ratio : 16:9
Frame rate : 23.976 fps
Color space : YUV
Chroma subsampling : 4:2:0
Bit depth : 8 bits
Scan type : Progressive
Bits/(Pixel*Frame) : 0.199
Stream size : 688 MiB (58%)
Writing library : x264 core 119 r2106 07efeb4
Encoding settings : cabac=1 / ref=9 / deblock=1:-1:-1 / analyse=0x3:0x133 / me=umh / subme=10 / psy=1 / psy_rd=1.00:0.00 / mixed_ref=0 / me_range=24 / chroma_me=1 / trellis=2 / 8x8dct=1 / cqm=0 / deadzone=21,11 / fast_pskip=0 / chroma_qp_offset=-2 / threads=12 / sliced_threads=0 / nr=0 / decimate=0 / interlaced=0 / bluray_compat=0 / constrained_intra=0 / bframes=12 / b_pyramid=2 / b_adapt=2 / b_bias=0 / direct=3 / weightb=1 / open_gop=0 / weightp=2 / keyint=250 / keyint_min=23 / scenecut=40 / intra_refresh=0 / rc_lookahead=60 / rc=2pass / mbtree=0 / bitrate=1950 / ratetol=1.0 / qcomp=0.65 / qpmin=8 / qpmax=30 / qpstep=4 / cplxblur=20.0 / qblur=0.5 / vbv_maxrate=50000 / vbv_bufsize=62500 / nal_hrd=none / ip_ratio=1.40 / pb_ratio=1.30 / aq=1:0.90
Language : English
Audio #1
ID : 2
Format : MPEG Audio
Format version : Version 1
Format profile : Layer 3
Mode : Joint stereo
Mode extension : MS Stereo
Muxing mode : Header stripping
Codec ID : A_MPEG/L3
Codec ID/Hint : MP3
Duration : 51mn 0s
Bit rate mode : Constant
Bit rate : 128 Kbps
Channel(s) : 2 channels
Sampling rate : 48.0 KHz
Compression mode : Lossy
Stream size : 46.7 MiB (4%)
Title : Persona99
Language : Russian
Audio #2
ID : 3
Format : AC-3
Format/Info : Audio Coding 3
Mode extension : CM (complete main)
Muxing mode : Header stripping
Codec ID : A_AC3
Duration : 51mn 0s
Bit rate mode : Constant
Bit rate : 384 Kbps
Channel(s) : 2 channels
Channel positions : Front: L R
Sampling rate : 48.0 KHz
Bit depth : 16 bits
Compression mode : Lossy
Stream size : 140 MiB (12%)
Title : Animedia
Language : Russian
Audio #3
ID : 4
Format : AC-3
Format/Info : Audio Coding 3
Mode extension : CM (complete main)
Muxing mode : Header stripping
Codec ID : A_AC3
Duration : 51mn 0s
Bit rate mode : Constant
Bit rate : 384 Kbps
Channel(s) : 2 channels
Channel positions : Front: L R
Sampling rate : 48.0 KHz
Bit depth : 16 bits
Compression mode : Lossy
Stream size : 140 MiB (12%)
Title : Е. Лурье
Language : Russian
Audio #4
ID : 5
Format : AC-3
Format/Info : Audio Coding 3
Mode extension : CM (complete main)
Muxing mode : Header stripping
Codec ID : A_AC3
Duration : 51mn 0s
Bit rate mode : Constant
Bit rate : 384 Kbps
Channel(s) : 2 channels
Channel positions : Front: L R
Sampling rate : 48.0 KHz
Bit depth : 16 bits
Compression mode : Lossy
Stream size : 140 MiB (12%)
Language : Japanese
Text
ID : 6
Format : ASS
Codec ID : S_TEXT/ASS
Codec ID/Info : Advanced Sub Station Alpha
Compression mode : Lossless
Language : Russian

Источник

rutracker.org


Последний раз редактировалось: dominion69 (2012-07-07 11:30), всего редактировалось 1 раз

Создавать темы 02-Июл-2012 18:45

[Профиль]  [ЛС] 

vik147

Стаж: 5 лет 9 месяцев

Сообщений: 31

спс dominion69,

_________________
Подпись отключена за нарушение правил форума

Создавать темы 06-Июл-2012 22:41

[Профиль]  [ЛС] 

Vity21

Стаж: 6 лет 8 месяцев

Сообщений: 115

Симпатии: 3

эхЪ ночь)),.. 4% не успел скачать))

Создавать темы 06-Июл-2012 23:39

[Профиль]  [ЛС] 

vik147

Стаж: 5 лет 9 месяцев

Сообщений: 31

dominion69, скорость

_________________
Подпись отключена за нарушение правил форума

Создавать темы 07-Июл-2012 07:35

[Профиль]  [ЛС] 

dominion69 ®

Стаж: 6 лет 7 месяцев

Сообщений: 324

Симпатии: 7

Качаем)
фильм пятый тоже имеется, но только в ДВДрипе, (1.4 Гб Width : 656 pixels Height : 352 pixels) пока не нашёл в хорошем качестве

Создавать темы 07-Июл-2012 08:24

[Профиль]  [ЛС] 

niki415263

Стаж: 5 лет 5 месяцев

Сообщений: 5

кто нибууууууууудь встаньте на раздачу
пожааааааааааааааааааалуйста
скажу спасиииииииииииииииииииииииииииииииииииииииииииибо

Создавать темы 10-Авг-2012 17:06

[Профиль]  [ЛС] 

Spaniard

Стаж: 5 лет 8 месяцев

Сообщений: 16

кто нибууууууууудь встаньте на раздачу
пожааааааааааааааааааалуйста
скажу спасиииииииииииииииииииииииииииииииииииииииииииибо
Я с раздачи и не уходил, но по ряду причин могу раздавать по утрам и вечерам, но не всегда, и на выходных большую часть времени.

Создавать темы 16-Окт-2012 09:31

[Профиль]  [ЛС] 

ParaDise

Стаж: 4 года 9 месяцев

Сообщений: 49

Встаньте на раздачу пожалуйста!

Создавать темы 10-Июн-2013 17:30

[Профиль]  [ЛС] 

Spaniard

Стаж: 5 лет 8 месяцев

Сообщений: 16

Пожалуйста, качайте )

Создавать темы 23-Июн-2013 09:41

[Профиль]  [ЛС] 
Показать сообщения:    
Ответить на тему

Текущее время: 18-Дек 23:45

Часовой пояс: UTC + 5



Вы не можете начинать темы
Вы не можете отвечать на сообщения
Вы не можете редактировать свои сообщения
Вы не можете удалять свои сообщения
Вы не можете голосовать в опросах
Вы не можете прикреплять файлы к сообщениям
Вы не можете скачивать файлы