Демон из Хагстоуна / The Hagstone Demon (Джон Спрингер) [2011 г., ужасы,WebRip]

Ответить на тему
 

Jentelman ®

Стаж: 5 лет 11 месяцев

Сообщений: 48

Демон из Хагстоуна / The Hagstone Demon
Год выпуска: 2011
Страна: США
Жанр: ужасы
Продолжительность: 01:35:42
Перевод: Любительский (одноголосый)
Режиссер: Джон Спрингер
В ролях: Марк Борхардт, Надин Гросс, Синди Кертц, Саша Андреев, Жизелль Эриксон, Мэрлин Мюррэй, Джей Смайли, Ланг Лег, Майкл Глен, Чарльз Хаббелл
Описание: Дуглас Элмор — писатель страдающий алкоголизмом, работающий охранником в старом здании Hagstone. Его преследуют видения мертвой жены и сверхъестественные силы зла. Чтоб избавиться от ужаса он должен отыскать и уничтожить источник этого зла, тем самым раскрыть секреты своего прошлого.
Качество: WebRip
Формат: AVI
Видео кодек: XviD
Аудио кодек: MPEG Audio
Видео: Xvid 720x480 501 Kbps 25fps
Аудио: MPEG Audio Layer 3 44100Hz stereo 128kbps

M.I.

General
Format : AVI
Format/Info : Audio Video Interleave
File size : 439 MiB
Duration : 1h 35mn
Overall bit rate : 641 Kbps
Writing application : MEncoder SVN-r30881(20100311-gcc4.3.3)
Writing library : MPlayer
Video
ID : 0
Format : MPEG-4 Visual
Format profile : Advanced [email protected]
Format settings, BVOP : 2
Format settings, QPel : No
Format settings, GMC : No warppoints
Format settings, Matrix : Default (H.263)
Codec ID : XVID
Codec ID/Hint : XviD
Duration : 1h 35mn
Bit rate : 501 Kbps
Width : 720 pixels
Height : 480 pixels
Display aspect ratio : 3:2
Frame rate : 25.000 fps
Standard : NTSC
Color space : YUV
Chroma subsampling : 4:2:0
Bit depth : 8 bits
Scan type : Progressive
Compression mode : Lossy
Bits/(Pixel*Frame) : 0.058
Stream size : 343 MiB (78%)
Writing library : XviD 1.2.1 (UTC 2008-12-04)
Audio
ID : 1
Format : MPEG Audio
Format version : Version 1
Format profile : Layer 3
Mode : Joint stereo
Mode extension : MS Stereo
Codec ID : 55
Codec ID/Hint : MP3
Duration : 1h 35mn
Bit rate mode : Constant
Bit rate : 128 Kbps
Channel(s) : 2 channels
Sampling rate : 44.1 KHz
Compression mode : Lossy
Delay relative to video : 40ms
Stream size : 87.3 MiB (20%)
Alignment : Aligned on interleaves
Interleave, duration : 26 ms (0.66 video frame)
Interleave, preload duration : 522 ms
Writing library : LAME3.98ЄЄЄЄЄЄЄЄЄЄЄЄ

Скриншоты

Создавать темы 02-Июл-2012 21:50

[Профиль]  [ЛС] 

victoruz

Стаж: 5 лет 5 месяцев

Сообщений: 1

skorist dayte

Создавать темы 11-Сен-2012 20:24

[Профиль]  [ЛС] 
Показать сообщения:    
Ответить на тему

Текущее время: 11-Дек 08:59

Часовой пояс: UTC + 5



Вы не можете начинать темы
Вы не можете отвечать на сообщения
Вы не можете редактировать свои сообщения
Вы не можете удалять свои сообщения
Вы не можете голосовать в опросах
Вы не можете прикреплять файлы к сообщениям
Вы не можете скачивать файлы