Манон Леско, или История кавалера де Гриё / Manon Lescaut (Габриэль Агион) [2011 г., история, WEbRip]

Ответить на тему
 

Jentelman ®

Стаж: 5 лет 11 месяцев

Сообщений: 48

Манон Леско, или История кавалера де Гриё / Manon Lescaut
Год выпуска: 2011
Страна: Франция
Жанр: история
Продолжительность: 01:31:03
Перевод: Любительский (двухголосый)
Режиссер: Габриэль Агион
В ролях: Селин Перро, Сэмюэл Тейс, Ксавье Галле,Лорен Стокер, Ornella Boulé, Pascal Henault, Робер Ирш, Пьер Мур....
Описание: Франция, начало XVIII века. Кавалер де Грие, 17-летний юноша благородного происхождения, с привлекательной внешностью и блестящими способностями, оканчивает курс философских наук в Амьене и должен отправиться в академию, чтобы продолжить обучение. Но все его жизненные планы рушатся в один день, когда де Грие знакомится с юной Манон Леско.
Девушка по воле родителей направляется в монастырь, дабы там обуздали ее склонность к удовольствиям. Она ищет способ вернуть себе свободу и будет признательна любому, кто поможет ей в этом. Де Грие, околдованный красотой Манон, предлагает ей бежать вместе с ним в Париж и там обвенчаться…
Качество: WebRip
Формат: AVI
Видео кодек: XviD
Аудио кодек: MPEG Audio
Видео: Xvid 720x480 25fps
Аудио: MPEG Audio Layer 3 44100Hz stereo 128kbps

M.I.

General
Format : AVI
Format/Info : Audio Video Interleave
File size : 427 MiB
Duration : 1h 31mn
Overall bit rate : 652 Kbps
Writing application : MEncoder SVN-r30881(20100311-gcc4.3.3)
Writing library : MPlayer
Video
ID : 0
Format : MPEG-4 Visual
Format profile : Advanced [email protected]
Format settings, BVOP : 2
Format settings, QPel : No
Format settings, GMC : No warppoints
Format settings, Matrix : Default (H.263)
Codec ID : XVID
Codec ID/Hint : XviD
Duration : 1h 31mn
Bit rate : 512 Kbps
Width : 720 pixels
Height : 480 pixels
Display aspect ratio : 3:2
Frame rate : 25.000 fps
Standard : NTSC
Color space : YUV
Chroma subsampling : 4:2:0
Bit depth : 8 bits
Scan type : Progressive
Compression mode : Lossy
Bits/(Pixel*Frame) : 0.059
Stream size : 335 MiB (78%)
Writing library : XviD 1.2.1 (UTC 2008-12-04)
Audio
ID : 1
Format : MPEG Audio
Format version : Version 1
Format profile : Layer 3
Mode : Joint stereo
Mode extension : MS Stereo
Codec ID : 55
Codec ID/Hint : MP3
Duration : 1h 31mn
Bit rate mode : Constant
Bit rate : 128 Kbps
Channel(s) : 2 channels
Sampling rate : 44.1 KHz
Compression mode : Lossy
Delay relative to video : 40ms
Stream size : 83.8 MiB (20%)
Alignment : Aligned on interleaves
Interleave, duration : 26 ms (0.65 video frame)
Interleave, preload duration : 522 ms

Скриншоты

Создавать темы 02-Июл-2012 22:05

[Профиль]  [ЛС] 
Показать сообщения:    
Ответить на тему

Текущее время: 17-Дек 22:53

Часовой пояс: UTC + 5



Вы не можете начинать темы
Вы не можете отвечать на сообщения
Вы не можете редактировать свои сообщения
Вы не можете удалять свои сообщения
Вы не можете голосовать в опросах
Вы не можете прикреплять файлы к сообщениям
Вы не можете скачивать файлы