Женщина в черном / The Woman in Black (Джеймс Уоткинс / James Watkins) [2012 г., ужасы, триллер, драма, HDRip]

Ответить на тему
 

dons ®

Стаж: 7 лет 3 месяца

Сообщений: 24

Женщина в черном / The Woman in Black
Год выпуска: 2012
Страна: Швеция, Канада, Великобритания
Жанр: ужасы, триллер, драма
Продолжительность: 01:35:20
Перевод: Профессиональный (полное дублирование)
Режиссер: Джеймс Уоткинс / James Watkins
В ролях: Дэниэл Рэдклифф, Кьяран Хайндс, Джанет МакТир, Дэвид Бурк, Шон Дули, Эмма Шори, Хэрмон Молли, Софи Стаки, Миша Хэндли, Джессика Рэйне
Описание: На дворе — конец девятнадцатого века, но, хотя люди пользуются автомобилями, железными дорогами и телеграфом, человек по-прежнему бессилен перед проявлениями сверхъестественного. Молодой лондонский юрист Артур Киппс вынужден оставить своего 4-летнего сына и отправиться в командировку в уединенную северную деревушку, чтобы составить реестр документов, оставшихся от скончавшегося хозяина поместья Ил Марш. Добравшись до места и пообщавшись с негостеприимными местными жителями, он начинает понимать, что над деревушкой нависла тень мрачной тайны. Когда же рядом со старым кладбищем ему на глаза попадается загадочная женщина, одетая в черное, это малозначительное происшествие знаменует начало череды леденящих кровь смертей в семьях обитателей деревни.
Качество: HDRip
Формат: AVI
Видео кодек: XviD
Аудио кодек: MP3
Видео: Xvid 688x288 23.98fps 957kbps
Аудио: MPEG Audio Layer 3 48000Hz stereo 128kbps

Скриншоты

Медиа инфо

[General
Complete name : D:\Jenshina.v.Chornom.2012.HDRip.avi
Format : AVI
Format/Info : Audio Video Interleave
File size : 747 MiB
Duration : 1h 35mn
Overall bit rate : 1 095 Kbps
Writing application : VirtualDubMod 1.5.10.3 | www.virtualdub-fr.org || (build 2550/release)
Writing library : VirtualDubMod build 2550/release
Video
ID : 0
Format : MPEG-4 Visual
Format profile : Advanced [email protected]
Format settings, BVOP : Yes
Format settings, QPel : No
Format settings, GMC : No warppoints
Format settings, Matrix : Custom
Codec ID : XVID
Codec ID/Hint : XviD
Duration : 1h 35mn
Bit rate : 958 Kbps
Width : 688 pixels
Height : 288 pixels
Display aspect ratio : 2.35:1
Frame rate : 23.976 fps
Resolution : 8 bits
Colorimetry : 4:2:0
Scan type : Progressive
Bits/(Pixel*Frame) : 0.202
Stream size : 653 MiB (87%)
Writing library : XviD 65
Audio
ID : 1
Format : MPEG Audio
Format version : Version 1
Format profile : Layer 3
Codec ID : 55
Codec ID/Hint : MP3
Duration : 1h 35mn
Bit rate mode : Constant
Bit rate : 128 Kbps
Channel(s) : 2 channels
Sampling rate : 48.0 KHz
Stream size : 87.3 MiB (12%)
Alignment : Aligned on interleaves
Interleave, duration : 42 ms (1.00 video frame)
Interleave, preload duration : 504 ms
Writing library : LAME3.99r
Encoding settings : -m s -V 4 -q 0 -lowpass 17 -b 128
]

Создавать темы 03-Июл-2012 20:49

[Профиль]  [ЛС] 

Senat

Стаж: 6 лет 6 месяцев

Сообщений: 251

фильм дешевый не стоит трачен... время

Создавать темы 03-Июл-2012 22:28

[Профиль]  [ЛС] 

vadim-mark

Стаж: 5 лет 7 месяцев

Сообщений: 46

Симпатии: 2

Senat,
Я бы так не сказал, у меня по крайней мере, таких денег нет))
бюджет
$17 000 000
сборы в США
$54 333 290
сборы в мире
+ $73 397 446 = $127 730 736
сборы в России
$4 961 001

Создавать темы 04-Июл-2012 00:27

[Профиль]  [ЛС] 

dons ®

Стаж: 7 лет 3 месяца

Сообщений: 24

фильм дешевый не стоит трачен... время
сам не посмотрел, ненавижу ужасов

Создавать темы 04-Июл-2012 09:28

[Профиль]  [ЛС] 

ELdor18

Стаж: 5 лет 7 месяцев

Сообщений: 17

Симпатии: 2

мне так интересно посмотреть!!! плиз помогите дайте скорость!!

Создавать темы 31-Авг-2012 15:17

[Профиль]  [ЛС] 

Dollermen

Стаж: 6 лет 6 месяцев

Сообщений: 17

Симпатии: 1

дайте скорость. спасибо зарание

Создавать темы 02-Сен-2012 06:07

[Профиль]  [ЛС] 

andiman

Стаж: 4 года 9 месяцев

Сообщений: 134

Симпатии: 1

Нудный и унылый фильм. ожидал намного большего...

Создавать темы 10-Ноя-2012 23:47

[Профиль]  [ЛС] 

djkavi

Стаж: 5 лет 3 месяца

Сообщений: 119

Симпатии: 35

довольно таки хороший фильм!!!

Создавать темы 11-Ноя-2012 01:42

[Профиль]  [ЛС] 
Показать сообщения:    
Ответить на тему

Текущее время: 18-Авг 09:58

Часовой пояс: UTC + 5



Вы не можете начинать темы
Вы не можете отвечать на сообщения
Вы не можете редактировать свои сообщения
Вы не можете удалять свои сообщения
Вы не можете голосовать в опросах
Вы не можете прикреплять файлы к сообщениям
Вы не можете скачивать файлы