BBC: Величайшие явления природы / BBC: Nature's Most Amazing Events (Питер Бассетт) [2009 г., документальный, HDRip-AVC]

Ответить на тему
 

dell81 ®

Стаж: 6 лет 8 месяцев

Сообщений: 11

BBC: Величайшие явления природы / BBC: Nature's Most Amazing Events
Страна: США, Великобритания
Год выпуска: 2009
Жанр: документальный
Продолжительность: 6 серии, кажд. серия по ~ 60 мин
Перевод: Профессиональный (одноголосый)
Режиссер: Питер Бассетт
Описание: Временами природа может удивить так, что любой самый талантливый кинорежиссёр лишь разведёт руками от зависти. Ни на одном экране вы не увидите такого безумства, такой любви и такого великолепия, которые встречаются в живой природе. И лишь она сама может открыть свои тайны. В нашей программе вы увидите как наиболее известные, так и малозаметные, но не менее интересные природные явления.

Доп. информация

Кинопоиск:
Imdb:

Медиа инфо

General
Complete name : D:\VIDEO\Velichajwie.javlenija.prirody.(6.serij.iz.6).2009.x264.HDRip.(AVC).ExKinoRay \Velichajwie.javlenija.prirody.(5.serija.iz.6).Velikij.potop.2009.x264.HDRip.(AVC).ExKinoRay.mkv
Format : Matroska
File size : 1 008 MiB
Duration : 59mn 23s
Overall bit rate : 2 374 Kbps
Movie name : Velichajwie.javlenija.prirody.(5.serija.iz.6).Velikij.potop.2009.x264.HDRip.(AVC).ExKinoRay (Enigma-Vladislav71)
Encoded date : UTC 2011-11-19 20:21:02
Writing application : mkvmerge v4.0.0 ('The Stars were mine') ñáîðêà îò Jun 6 2010 16:18:42
Writing library : libebml v1.0.0 + libmatroska v1.0.0
Video #1
ID : 1
Format : AVC
Format/Info : Advanced Video Codec
Format profile : [email protected]
Format settings, CABAC : Yes
Format settings, ReFrames : 8 frames
Muxing mode : Container [email protected]
Codec ID : V_MPEG4/ISO/AVC
Duration : 59mn 20s
Bit rate : 1 654 Kbps
Nominal bit rate : 1 700 Kbps
Width : 1 024 pixels
Height : 576 pixels
Display aspect ratio : 16:9
Frame rate : 29.970 fps
Resolution : 24 bits
Colorimetry : 4:2:0
Scan type : Progressive
Bits/(Pixel*Frame) : 0.094
Stream size : 702 MiB (70%)
Writing library : x264 core 114 r1924 08d04a4
Encoding settings : cabac=1 / ref=8 / deblock=1:-2:-2 / analyse=0x3:0x133 / me=umh / subme=10 / psy=1 / psy_rd=1.00:0.00 / mixed_ref=1 / me_range=48 / chroma_me=1 / trellis=2 / 8x8dct=1 / cqm=0 / deadzone=21,11 / fast_pskip=0 / chroma_qp_offset=-2 / threads=3 / sliced_threads=0 / nr=0 / decimate=1 / interlaced=0 / constrained_intra=0 / bframes=8 / b_pyramid=2 / b_adapt=2 / b_bias=0 / direct=3 / weightb=1 / open_gop=0 / weightp=2 / keyint=250 / keyint_min=23 / scenecut=40 / intra_refresh=0 / rc=2pass / mbtree=0 / bitrate=1700 / ratetol=1.0 / qcomp=0.60 / qpmin=10 / qpmax=51 / qpstep=4 / cplxblur=20.0 / qblur=0.5 / ip_ratio=1.40 / pb_ratio=1.30 / aq=2:1.00
Audio #2
ID : 2
Format : AC-3
Format/Info : Audio Coding 3
Codec ID : A_AC3
Duration : 59mn 23s
Bit rate mode : Constant
Bit rate : 224 Kbps
Channel(s) : 2 channels
Channel positions : L R
Sampling rate : 48.0 KHz
Stream size : 95.2 MiB (9%)
Language : Russian
Audio #3
ID : 3
Format : AC-3
Format/Info : Audio Coding 3
Codec ID : A_AC3
Duration : 59mn 23s
Bit rate mode : Constant
Bit rate : 448 Kbps
Channel(s) : 2 channels
Channel positions : L R
Sampling rate : 48.0 KHz
Stream size : 190 MiB (19%)
Text #4
ID : 4
Format : UTF-8
Codec ID : S_TEXT/UTF8
Codec ID/Info : UTF-8 Plain Text
Language : Russian
Text #5
ID : 5
Format : UTF-8
Codec ID : S_TEXT/UTF8
Codec ID/Info : UTF-8 Plain Text
Качество: HDRip-AVC
Формат: MKV
Видео кодек: H.264
Аудио кодек: AC3
Видео: Bit rate: 1 700 Kbps Width:1 024 pixels Height: 576 pixels
Аудио #1: Bit rate: 224 Kbps Channel(s): 2 channels Sampling rate: 48.0 KHz Language: Russian
Аудио #2: Bit rate: 448 Kbps Сhannel(s): 2 channels Sampling rate: : 48.0 KHz Language:English

Скриншоты







Последний раз редактировалось: dell81 (2012-07-03 22:59), всего редактировалось 1 раз

Создавать темы 03-Июл-2012 21:44

[Профиль]  [ЛС] 

dell81 ®

Стаж: 6 лет 8 месяцев

Сообщений: 11

исправил

Создавать темы 03-Июл-2012 22:57

[Профиль]  [ЛС] 

dell81 ®

Стаж: 6 лет 8 месяцев

Сообщений: 11

проверка будет? у меня рейтинг снизился по этому поставил релиз а вы отключили, зачем?

Создавать темы 03-Июл-2012 23:06

[Профиль]  [ЛС] 

Топик был перенесен из форума Документальные фильмы в форум BBC

Pendalf

Создавать темы 04-Июл-2012 02:21

 

abraam

Стаж: 6 лет 11 месяцев

Сообщений: 12

Симпатии: 4

Дайте скорость, плиз

Создавать темы 13-Окт-2012 09:18

[Профиль]  [ЛС] 

Whitejin

Стаж: 6 лет 8 месяцев

Сообщений: 175

Симпатии: 11

спасибо за релиз и сидам за скорость )

Создавать темы 07-Дек-2012 00:52

[Профиль]  [ЛС] 

Rikardo Kaka

Стаж: 5 лет 7 месяцев

Сообщений: 13

Дайте скорость

Создавать темы 31-Дек-2012 12:05

[Профиль]  [ЛС] 

Faxa

Стаж: 7 лет 7 месяцев

Сообщений: 115

Симпатии: 4

Качаю уже 2 недели и 5 дней... ппц проста !

Создавать темы 26-Янв-2013 14:29

[Профиль]  [ЛС] 

Alla

Стаж: 7 лет 2 месяца

Сообщений: 111

Встаньте на раздачу

Создавать темы 16-Мар-2013 20:30

[Профиль]  [ЛС] 
Показать сообщения:    
Ответить на тему

Текущее время: 15-Дек 11:21

Часовой пояс: UTC + 5



Вы не можете начинать темы
Вы не можете отвечать на сообщения
Вы не можете редактировать свои сообщения
Вы не можете удалять свои сообщения
Вы не можете голосовать в опросах
Вы не можете прикреплять файлы к сообщениям
Вы не можете скачивать файлы