Начало: Дополнительные материалы / Inception: Extras / 2010 / [BDRip 720p]

Ответить на тему
 

Judas Desperados ®

Стаж: 5 лет 6 месяцев

Сообщений: 185

Симпатии: 19

Начало: Дополнительные материалы / Inception: Extras- -Тип раздаваемого материала: фильм о фильме + интервью + концепты
Год: 2010
Страна: США, Великобритания
Жанр: фантастика, боевик, триллер, драма, детектив
Продолжительность: 00:42:11 + 00:44:29
Перевод: Субтитры
Русские субтитры: есть-Режиссер: Кристофер Нолан
В ролях: Леонардо ДиКаприо, Джозеф Гордон-Левитт, Эллен Пейдж, Том Харди, Кен Ватанабе, Дилип Рао, Киллиан Мёрфи, Том Беренджер, Марион Котийяр, Пит Постлетуэйт-Описание:
Дополнительные материалы к фильму с двух-дискового специального Bluray издания-Extraction Mode сделан бесшовными включениями в сам фильм на первом BluRay-диске. Поэтому в начале и в конце каждой части вырезано ненужные отрывки фильма и объедены в один.-П.С: Спасибо пользователю root-

Доп №1

1. Начало: Режим извлечения / Inception: Extraction Mode14 короткометражных отрывков о создании фильма, включая интервью с актёрами и командой:
The Inception of Inception
The Japanese Castle: The Dreams Is Collapsing
Desintegration of the Paris Café
Constructing Paradoxical Architecture
The Freight Train
Ambush on the City Streets
The Tilting Bar
The Rotating Corridor
The Mountain Fortress
Simulating Zero-G
Limbo: The Design of Unconstructed Dream Space
The Fortress Explosion
The Music of Dreams
The Dream-Share
Качество: BDRip
Формат видео: MKV
Видео кодек: x264
Аудио кодек: AC-3
Видео: x264 / 4493 Kbps /1280 x 720p / 23.976 fps / 16:9 / [email protected]
Аудио: Английский / AC-3 / 5.1 / 448 Kbps / 48 kHz / 16-bit
Cубтитры 1: Русские (SRT, UTF8)
Cубтитры 2: Английские (SRT, UTF8)

Доп №2

2. Сны: Кино подсознания / Dreams: Cinema of the Subconscious
Документальный фильм о природе человеческих снов.
Качество: BDRip
Формат видео: MKV
Видео кодек: x264
Аудио кодек: AC-3
Видео: x264 / 5000 Kbps / 1280 x 720p / 23.976 fps / 16:9 / [email protected]
Аудио: Английский / AC-3 / 2.0 / 192 Kbps / 48 kHz / 16-bit
Cубтитры 1: Русские (SRT, UTF8)
Cубтитры 2: Английские (SRT, UTF8)

Доп №3

3. Начало: Концепт-арт / Inception: Concept Art
32 концепт-арта, созданных в процессе создания фильма.
Формат: PNG

MediaInfo

Доп №1

General
Format : Matroska
File size : 1.46 GiB
Duration : 42mn 11s
Overall bit rate : 4 940 Kbps
Encoded date : UTC 2011-01-24 20:25:56
Writing application : mkvmerge v4.4.0 ('Die Wiederkehr') built on Oct 31 2010 21:52:48
Writing library : libebml v1.0.0 + libmatroska v1.0.0
Video
ID : 1
Format : AVC
Format/Info : Advanced Video Codec
Format profile : [email protected]
Format settings, CABAC : Yes
Format settings, ReFrames : 3 frames
Codec ID : V_MPEG4/ISO/AVC
Duration : 42mn 11s
Bit rate mode : Variable
Bit rate : 4 493 Kbps
Maximum bit rate : 15.0 Mbps
Width : 1 280 pixels
Height : 720 pixels
Display aspect ratio : 16:9
Frame rate : 23.976 fps
Color space : YUV
Chroma subsampling : 4:2:0
Bit depth : 8 bits
Scan type : Progressive
Bits/(Pixel*Frame) : 0.203
Stream size : 1.29 GiB (89%)
Title : Inception: Extraction Mode
Writing library : x264 core 112 r1867 22bfd31
Encoding settings : cabac=1 / ref=4 / deblock=1:0:0 / analyse=0x3:0x113 / me=hex / subme=7 / psy=1 / psy_rd=1.00:0.00 / mixed_ref=1 / me_range=16 / chroma_me=1 / trellis=1 / 8x8dct=1 / cqm=0 / deadzone=21,11 / fast_pskip=1 / chroma_qp_offset=-2 / threads=3 / sliced_threads=0 / slices=4 / nr=0 / decimate=1 / interlaced=0 / constrained_intra=0 / bframes=3 / b_pyramid=1 / b_adapt=1 / b_bias=0 / direct=1 / weightb=1 / open_gop=2 / weightp=0 / keyint=24 / keyint_min=2 / scenecut=40 / intra_refresh=0 / rc_lookahead=24 / rc=2pass / mbtree=1 / bitrate=4493 / ratetol=1.0 / qcomp=0.60 / qpmin=0 / qpmax=51 / qpstep=4 / cplxblur=20.0 / qblur=0.5 / vbv_maxrate=15000 / vbv_bufsize=15000 / nal_hrd=vbr / ip_ratio=1.40 / aq=1:1.00
Language : English
Color primaries : BT.709-5, BT.1361, IEC 61966-2-4, SMPTE RP177
Transfer characteristics : BT.709-5, BT.1361
Matrix coefficients : BT.709-5, BT.1361, IEC 61966-2-4 709, SMPTE RP177
Audio
ID : 2
Format : AC-3
Format/Info : Audio Coding 3
Mode extension : CM (complete main)
Codec ID : A_AC3
Duration : 42mn 11s
Bit rate mode : Constant
Bit rate : 448 Kbps
Channel(s) : 6 channels
Channel positions : Front: L C R, Side: L R, LFE
Sampling rate : 48.0 KHz
Bit depth : 16 bits
Compression mode : Lossy
Stream size : 135 MiB (9%)
Title : Inception: Extraction Mode
Language : English
Text #1
ID : 3
Format : UTF-8
Codec ID : S_TEXT/UTF8
Codec ID/Info : UTF-8 Plain Text
Title : Inception: Extraction Mode
Language : Russian
Text #2
ID : 4
Format : UTF-8
Codec ID : S_TEXT/UTF8
Codec ID/Info : UTF-8 Plain Text
Title : Inception: Extraction Mode
Language : English
Menu
00:00:00.000 : en:The Inception of Inception
00:03:09.000 : en:The Japanese Castle: The Dreams Is Collapsing
00:06:31.000 : en:Desintegration of the Paris Café
00:09:35.000 : en:Constructing Paradoxical Architecture
00:11:51.000 : en:The Freight Train
00:14:47.000 : en:Ambush on the City Streets
00:17:29.000 : en:The Tilting Bar
00:19:40.000 : en:The Rotating Corridor
00:24:37.000 : en:The Mountain Fortress
00:27:32.000 : en:Simulating Zero-G
00:29:00.000 : en:Limbo: The Design of Unconstructed Dream Space
00:32:30.000 : en:The Fortress Explosion
00:34:31.000 : en:The Music of Dreams
00:38:30.000 : en:The Dream-Share
00:41:17.000 : en:Credits

Доп №2

Код:
Format : Matroska
File size : 1.61 GiB
Duration : 44mn 29s
Overall bit rate : 5 195 Kbps
Encoded date : UTC 2011-01-23 13:59:15
Writing application : mkvmerge v4.4.0 ('Die Wiederkehr') built on Oct 31 2010 21:52:48
Writing library : libebml v1.0.0 + libmatroska v1.0.0
Video
ID : 1
Format : AVC
Format/Info : Advanced Video Codec
Format profile : [email protected]
Format settings, CABAC : Yes
Format settings, ReFrames : 5 frames
Codec ID : V_MPEG4/ISO/AVC
Duration : 44mn 29s
Bit rate : 5 000 Kbps
Width : 1 280 pixels
Height : 720 pixels
Display aspect ratio : 16:9
Frame rate : 23.976 fps
Color space : YUV
Chroma subsampling : 4:2:0
Bit depth : 8 bits
Scan type : Progressive
Bits/(Pixel*Frame) : 0.226
Stream size : 1.52 GiB (94%)
Title : Inception: Dreams: Cinema of the Subconscious
Writing library : x264 core 88 r1471 1144615
Encoding settings : cabac=1 / ref=5 / deblock=1:0:0 / analyse=0x3:0x133 / me=hex / subme=7 / psy=1 / psy_rd=1.00:0.00 / mixed_ref=1 / me_range=16 / chroma_me=1 / trellis=0 / 8x8dct=1 / cqm=0 / deadzone=21,11 / fast_pskip=1 / chroma_qp_offset=-2 / threads=12 / sliced_threads=0 / nr=0 / decimate=1 / mbaff=0 / constrained_intra=0 / bframes=3 / b_pyramid=2 / b_adapt=2 / b_bias=0 / direct=1 / wpredb=1 / wpredp=2 / keyint=250 / keyint_min=25 / scenecut=40 / intra_refresh=0 / rc_lookahead=40 / rc=2pass / mbtree=1 / bitrate=5000 / ratetol=1.0 / qcomp=0.60 / qpmin=10 / qpmax=51 / qpstep=4 / cplxblur=20.0 / qblur=0.5 / ip_ratio=1.40 / aq=1:1.00
Language : English
Audio
ID : 2
Format : AC-3
Format/Info : Audio Coding 3
Format profile : Dolby Digital
Mode extension : CM (complete main)
Codec ID : A_AC3
Duration : 44mn 29s
Bit rate mode : Constant
Bit rate : 192 Kbps
Channel(s) : 2 channels
Channel positions : Front: L R
Sampling rate : 48.0 KHz
Bit depth : 16 bits
Compression mode : Lossy
Stream size : 61.1 MiB (4%)
Title : Inception: Dreams: Cinema of the Subconscious
Language : English
Text #1
ID : 3
Format : UTF-8
Codec ID : S_TEXT/UTF8
Codec ID/Info : UTF-8 Plain Text
Title : Inception: Dreams: Cinema of the Subconscious
Language : Russian
Text #2
ID : 4
Format : UTF-8
Codec ID : S_TEXT/UTF8
Codec ID/Info : UTF-8 Plain Text
Title : Inception: Dreams: Cinema of the Subconscious
Language : English
Menu
00:00:00.000 : en:Chapter 1
00:09:15.430 : en:Chapter 2
00:19:45.059 : en:Chapter 3
00:30:21.778 : en:Chapter 4
00:39:52.932 : en:Chapter 5

Создавать темы 04-Июл-2012 11:11

[Профиль]  [ЛС] 

Топик был перенесен из форума HD-video в форум Зарубежное кино

Judas Desperados

Создавать темы 04-Июл-2012 11:13

 

jaska-3d

Стаж: 5 лет 8 месяцев

Сообщений: 250

Симпатии: 25

это кино или сериал ?

Создавать темы 04-Июл-2012 21:44

[Профиль]  [ЛС] 

Tony R.

Стаж: 8 лет 7 месяцев

Сообщений: 132

Симпатии: 20

Тип раздаваемого материала: фильм о фильме + интервью + концепты
Учимся читать описание :)

Создавать темы 04-Июл-2012 22:05

[Профиль]  [ЛС] 

sh.safarov

Стаж: 5 лет 8 месяцев

Сообщений: 30

Симпатии: 1

Скорость дай

Создавать темы 06-Июл-2012 07:49

[Профиль]  [ЛС] 

frostyk

Стаж: 6 лет 1 месяц

Сообщений: 27

Симпатии: 1

даешь скорость!

Создавать темы 08-Июл-2012 02:19

[Профиль]  [ЛС] 

FNX

Стаж: 4 года 11 месяцев

Сообщений: 58

Симпатии: 13

Это Что сериал или Филм?

Создавать темы 10-Сен-2012 17:35

[Профиль]  [ЛС] 

root

Стаж: 5 лет 2 месяца

Сообщений: 592

Симпатии: 172

ничего себе большое спасибо
Это Что сериал или Филм?
нет не сериал, читай описание!

Создавать темы 12-Сен-2012 17:27

[Профиль]  [ЛС] 

FNX

Стаж: 4 года 11 месяцев

Сообщений: 58

Симпатии: 13

ничего себе большое спасибо
Это Что сериал или Филм?
нет не сериал, читай описание!
Ясна

Создавать темы 20-Сен-2012 19:06

[Профиль]  [ЛС] 
Показать сообщения:    
Ответить на тему

Текущее время: 20-Авг 20:15

Часовой пояс: UTC + 5



Вы не можете начинать темы
Вы не можете отвечать на сообщения
Вы не можете редактировать свои сообщения
Вы не можете удалять свои сообщения
Вы не можете голосовать в опросах
Вы не можете прикреплять файлы к сообщениям
Вы не можете скачивать файлы