WWE Monday Night Raw 2012/07/02 [2012 г., Реслинг, HDTV]

Страницы :  1, 2  След.

Ответить на тему
 

Спартанец ®

Стаж: 5 лет 8 месяцев

Сообщений: 361

WWE Monday Night Raw 2012/07/02
Год выпуска: 2012
Вид спорта: Реслинг
Участники: Звезды WWE
Продолжительность: 01.32.52
Комментарий: Профессиональный (многоголосый, закадровый)
Язык комментариев: Русский
Описание: Еженедельное шоу Monday Night Raw. Выпуск от 02-го июля 2012 года
Качество: HDTV
Формат: Mр4
Видео кодек: x264/AVC
Аудио кодек: AAC
Видео: MPEG4, Video, (H264), 704x400, 29.97fps, 1 404 Kbps
Аудио: AAC, 44100Hz, stereo, 1411kbps, 128 Kbps

Кард

Прайм Тайм Плеерс (Янг и Тайтус о Нил) и Коди Роудс и Дэвид Отунга против Кофи Кингстона, Р- Труфа,Сантино Мареллы и Кристиана (8 man TAG TEAM)
Альберто Дель Рио против Син Кары
Шеймус и Эй Джей против Дольфа Зигглера и Викки Герерро (Mixed Tag team)
Хит Слэйтер против ... Клоуна Доинка
Каин против Биг Шоу (No DQ)
Тайсон Кидд против Тенсая
См Панк и Джон Сина против Криса Джерико и Даниэля Брайна (Tag Team)

Скриншоты



МедиаИнфо

General
Format : MPEG-4
Format profile : Base Media
Codec ID : isom
File size : 1 020 MiB
Duration : 1h 32mn
Overall bit rate mode : Variable
Overall bit rate : 1 536 Kbps
Encoded date : UTC 2012-07-02 15:09:27
Tagged date : UTC 2012-07-02 15:09:27
Writing application : Yamb 2.1.0.0 [http://yamb.unite-video.com]
Video
ID : 1
Format : AVC
Format/Info : Advanced Video Codec
Format profile : [email protected]
Format settings, CABAC : Yes
Format settings, ReFrames : 4 frames
Codec ID : avc1
Codec ID/Info : Advanced Video Coding
Duration : 1h 32mn
Bit rate : 1 404 Kbps
Maximum bit rate : 2 651 Kbps
Width : 704 pixels
Height : 400 pixels
Display aspect ratio : 16:9
Frame rate mode : Constant
Frame rate : 29.970 fps
Color space : YUV
Chroma subsampling : 4:2:0
Bit depth : 8 bits
Scan type : Progressive
Bits/(Pixel*Frame) : 0.166
Stream size : 933 MiB (91%)
Writing library : x264 core 125 r2200 999b753
Encoding settings : cabac=1 / ref=5 / deblock=1:0:0 / analyse=0x3:0x113 / me=umh / subme=9 / psy=1 / psy_rd=1.00:0.00 / mixed_ref=1 / me_range=16 / chroma_me=1 / trellis=1 / 8x8dct=1 / cqm=0 / deadzone=21,11 / fast_pskip=1 / chroma_qp_offset=-2 / threads=12 / lookahead_threads=2 / sliced_threads=0 / nr=0 / decimate=1 / interlaced=0 / bluray_compat=0 / constrained_intra=0 / bframes=3 / b_pyramid=1 / b_adapt=2 / b_bias=0 / direct=3 / weightb=1 / open_gop=0 / weightp=2 / keyint=300 / keyint_min=30 / scenecut=40 / intra_refresh=0 / rc_lookahead=40 / rc=crf / mbtree=1 / crf=19.0 / qcomp=0.60 / qpmin=0 / qpmax=69 / qpstep=4 / vbv_maxrate=1500 / vbv_bufsize=1450 / crf_max=0.0 / nal_hrd=none / ip_ratio=1.40 / aq=1:1.00
Encoded date : UTC 2011-09-08 11:43:25
Tagged date : UTC 2012-07-02 15:10:40
Audio
ID : 2
Format : AAC
Format/Info : Advanced Audio Codec
Format profile : LC
Codec ID : 40
Duration : 1h 32mn
Bit rate mode : Variable
Bit rate : 128 Kbps
Maximum bit rate : 161 Kbps
Channel(s) : 2 channels
Channel positions : Front: L R
Sampling rate : 44.1 KHz
Compression mode : Lossy
Stream size : 85.0 MiB (8%)
Encoded date : UTC 2012-07-02 15:10:37
Tagged date : UTC 2012-07-02 15:10:40

Создавать темы 04-Июл-2012 14:14

[Профиль]  [ЛС] 

NodirAgenT

Стаж: 6 лет 6 месяцев

Сообщений: 204

СПС Спартанец Еси Моно Залей ресманию 24-25 заранее Благодарен

_________________
Подпись отключена за нарушение правил форума

Создавать темы 04-Июл-2012 22:23

[Профиль]  [ЛС] 

NodirAgenT

Стаж: 6 лет 6 месяцев

Сообщений: 204

Все Бои Этого ро опупительные да еще вроде 5 выпусков и Ждем 1000 Выпуск Ро и Пож еси не ошибаюсь будет ро идти по 3 часа или нет?

_________________
Подпись отключена за нарушение правил форума

Создавать темы 04-Июл-2012 22:25

[Профиль]  [ЛС] 

Kroys

Стаж: 6 лет

Сообщений: 187

Симпатии: 1

ОПУПЕТЬ КАКИЕ БОИ ................ Клоун Доинк вернулсООО афигетЬ)))

Создавать темы 05-Июл-2012 02:38

[Профиль]  [ЛС] 

Спартанец ®

Стаж: 5 лет 8 месяцев

Сообщений: 361

Доинк не вернулся, просто все винтажные реслеры до 1000-го эпизода, будут посещать Ро. И почему - то все они взъелись на Хита Слейтера :))
На счет Рестлманий я не забыл )

Создавать темы 05-Июл-2012 07:49

[Профиль]  [ЛС] 

LiX

Стаж: 6 лет 4 месяца

Сообщений: 254

Симпатии: 6

Спартанец, огромное спс бои супер! Раньше не качал Raw и Smackdown а по телеку смотрел! А теперь качну))

Создавать темы 05-Июл-2012 09:39

[Профиль]  [ЛС] 

Спартанец ®

Стаж: 5 лет 8 месяцев

Сообщений: 361

Да на здоровье LiX, :)

Создавать темы 05-Июл-2012 14:11

[Профиль]  [ЛС] 

Kroys

Стаж: 6 лет

Сообщений: 187

Симпатии: 1

Доинк не вернулся, просто все винтажные реслеры до 1000-го эпизода, будут посещать Ро. И почему - то все они взъелись на Хита Слейтера :))
На счет Рестлманий я не забыл )
да понял я понял))) просто так написал))) наконец то я его увижу в движении :) а не то что в игре :)

Создавать темы 05-Июл-2012 15:00

[Профиль]  [ЛС] 

Kroys

Стаж: 6 лет

Сообщений: 187

Симпатии: 1

Доинк не вернулся, просто все винтажные реслеры до 1000-го эпизода, будут посещать Ро. И почему - то все они взъелись на Хита Слейтера :))
На счет Рестлманий я не забыл )
Потому что Хит Слейтер на Старых звёзд попёр ))) тип крутой же))) и все походу теперь его будут ломать:)

Создавать темы 05-Июл-2012 15:02

[Профиль]  [ЛС] 

Спартанец ®

Стаж: 5 лет 8 месяцев

Сообщений: 361

Доинк не вернулся, просто все винтажные реслеры до 1000-го эпизода, будут посещать Ро. И почему - то все они взъелись на Хита Слейтера :))
На счет Рестлманий я не забыл )
Потому что Хит Слейтер на Старых звёзд попёр ))) тип крутой же))) и все походу теперь его будут ломать:)
Ну Слейтер конечно мясо, но и Клоун уже не тот что 20-ть лет назад )) Сам увидишь )

Создавать темы 05-Июл-2012 15:19

[Профиль]  [ЛС] 

LiX

Стаж: 6 лет 4 месяца

Сообщений: 254

Симпатии: 6

Ребята а что вы скажите про концовку? А? Я что-то вроде этого конешно ожидал, но всё-таки я тогда остался в недоумении)))

Создавать темы 05-Июл-2012 16:55

[Профиль]  [ЛС] 

NodirAgenT

Стаж: 6 лет 6 месяцев

Сообщений: 204

Зак Райдер выиграл The Great American Bash Battle Royal, и получил возможность быть Генеральным Менеджером Роу и Смекдауна на следующей неделе.

_________________
Подпись отключена за нарушение правил форума

Создавать темы 05-Июл-2012 20:57

[Профиль]  [ЛС] 

Спартанец ®

Стаж: 5 лет 8 месяцев

Сообщений: 361

Что можно сказать ))) Крейзи Эй Джей )) Подписала пацанов под фигню ))) bu

Создавать темы 05-Июл-2012 22:47

[Профиль]  [ЛС] 

LiX

Стаж: 6 лет 4 месяца

Сообщений: 254

Симпатии: 6

NodirAgenT, братан ну зачем вы написали это я ещё не посмотрел(((((

Создавать темы 06-Июл-2012 00:32

[Профиль]  [ЛС] 

Kroys

Стаж: 6 лет

Сообщений: 187

Симпатии: 1

да ну со столом фигня получилось , манкинда помните Гробовщик откуда скинул нечего он встал потом :) а эти лежат уФФФ ) скока подобных было бросков вставали ведь , а щас петушки развалилисЬ)

Создавать темы 06-Июл-2012 01:56

[Профиль]  [ЛС] 
Показать сообщения:    
Ответить на тему

Текущее время: 21-Окт 13:31

Часовой пояс: UTC + 5



Вы не можете начинать темы
Вы не можете отвечать на сообщения
Вы не можете редактировать свои сообщения
Вы не можете удалять свои сообщения
Вы не можете голосовать в опросах
Вы не можете прикреплять файлы к сообщениям
Вы не можете скачивать файлы