Super Smackdown - The Great American Bash [2012 г., Реслинг, HDTV]

Страницы :  1, 2  След.

Ответить на тему
 

Спартанец ®

Стаж: 5 лет 6 месяцев

Сообщений: 361

Super Smackdown - The Great American Bash
Год выпуска: 2012
Вид спорта: Реслинг
Участники: Звезды WWE
Продолжительность: 01.22.31
Комментарий: Профессиональный (многоголосый, закадровый)
Язык комментариев: Русский
Описание: Шоу посвященное национальному празднику жителей США - дню независимости.
Качество: HDTV
Формат: Mр4
Видео кодек: x264/AVC
Аудио кодек: AAC
Видео: MPEG4, Video, (H264), 704x400, 29.97fps, 1 442 Kbps
Аудио: AAC, 44100Hz, stereo, 1411kbps, 128 Kbps

Кард

The Great Khali and Layla vs. Antonio Cesaro and Aksana - Mixed Tag Team Match
Christian vs. Cody Rhodes - Money in the Bank Qualifying Match
Dolph Ziggler vs. Alex Riley - Money in the Bank Qualifying Match
Santino Marella and Sgt. Slaughter and "Hacksaw” Jim Duggan vs. Drew McIntyre and Hunico and Camacho
Ryback vs. Curt Hawkins
The Great American Bash 20-Man Battle Royal

Скриншоты



МедиаИнфо

General
Format : MPEG-4
Format profile : Base Media
Codec ID : isom
File size : 929 MiB
Duration : 1h 22mn
Overall bit rate mode : Variable
Overall bit rate : 1 574 Kbps
Encoded date : UTC 2012-07-03 14:37:18
Tagged date : UTC 2012-07-03 14:37:18
Writing application : Yamb 2.1.0.0 [http://yamb.unite-video.com]
Video
ID : 1
Format : AVC
Format/Info : Advanced Video Codec
Format profile : [email protected]
Format settings, CABAC : Yes
Format settings, ReFrames : 4 frames
Codec ID : avc1
Codec ID/Info : Advanced Video Coding
Duration : 1h 22mn
Bit rate : 1 442 Kbps
Maximum bit rate : 2 570 Kbps
Width : 704 pixels
Height : 400 pixels
Display aspect ratio : 16:9
Frame rate mode : Constant
Frame rate : 29.970 fps
Color space : YUV
Chroma subsampling : 4:2:0
Bit depth : 8 bits
Scan type : Progressive
Bits/(Pixel*Frame) : 0.171
Stream size : 851 MiB (92%)
Writing library : x264 core 125 r2200 999b753
Encoding settings : cabac=1 / ref=5 / deblock=1:0:0 / analyse=0x3:0x113 / me=umh / subme=9 / psy=1 / psy_rd=1.00:0.00 / mixed_ref=1 / me_range=16 / chroma_me=1 / trellis=1 / 8x8dct=1 / cqm=0 / deadzone=21,11 / fast_pskip=1 / chroma_qp_offset=-2 / threads=12 / lookahead_threads=2 / sliced_threads=0 / nr=0 / decimate=1 / interlaced=0 / bluray_compat=0 / constrained_intra=0 / bframes=3 / b_pyramid=1 / b_adapt=2 / b_bias=0 / direct=3 / weightb=1 / open_gop=0 / weightp=2 / keyint=300 / keyint_min=30 / scenecut=40 / intra_refresh=0 / rc_lookahead=40 / rc=crf / mbtree=1 / crf=19.0 / qcomp=0.60 / qpmin=0 / qpmax=69 / qpstep=4 / vbv_maxrate=1500 / vbv_bufsize=1450 / crf_max=0.0 / nal_hrd=none / ip_ratio=1.40 / aq=1:1.00
Encoded date : UTC 2011-09-08 11:43:25
Tagged date : UTC 2012-07-03 14:38:34
Audio
ID : 2
Format : AAC
Format/Info : Advanced Audio Codec
Format profile : LC
Codec ID : 40
Duration : 1h 22mn
Bit rate mode : Variable
Bit rate : 128 Kbps
Maximum bit rate : 181 Kbps
Channel(s) : 2 channels
Channel positions : Front: L R
Sampling rate : 44.1 KHz
Compression mode : Lossy
Stream size : 75.5 MiB (8%)
Encoded date : UTC 2012-07-03 14:38:27
Tagged date : UTC 2012-07-03 14:38:34

Создавать темы 05-Июл-2012 07:46

[Профиль]  [ЛС] 

NodirAgenT

Стаж: 6 лет 4 месяца

Сообщений: 204

Народ Смарите Скачайте Эту Прогу Качество делает Суперское Хд Я Сам Вчера протестил и кто качал беклеш терь посмарите через эту прогу и скажите
http://nnm.uz/interesting/other/28635-mirillis-spla...er-lite-171.html

_________________
Подпись отключена за нарушение правил форума

Создавать темы 05-Июл-2012 09:07

[Профиль]  [ЛС] 

NodirAgenT

Стаж: 6 лет 4 месяца

Сообщений: 204

Одиночный поединок за титул Чемпиона WWE со специальным рефери Эй Джей

Битва "Money in the Bank" за возможность боя за титул Чемпиона Мира в тяжелом весе

Битва "Money in the Bank" за возможность боя за титул Чемпиона WWE

Одиночный поединок за титул Чемпиона Мира в тяжелом весе
Сорь картинки нету
А у тя нету драфта Какого нибудь я ни раз невидел прост

_________________
Подпись отключена за нарушение правил форума

Создавать темы 05-Июл-2012 09:20

[Профиль]  [ЛС] 

Спартанец ®

Стаж: 5 лет 6 месяцев

Сообщений: 361

Что за Драфт ? )

Создавать темы 05-Июл-2012 14:12

[Профиль]  [ЛС] 

Emil_Safa

Стаж: 5 лет 2 месяца

Сообщений: 102

Когда Реслеры смакдауна переходят в Ро и наоборот)

Создавать темы 05-Июл-2012 14:34

[Профиль]  [ЛС] 

Спартанец ®

Стаж: 5 лет 6 месяцев

Сообщений: 361

а блин ) шоу имеется ввиду ? ) Не нету (

Создавать темы 05-Июл-2012 14:55

[Профиль]  [ЛС] 

Kroys

Стаж: 5 лет 10 месяцев

Сообщений: 187

Симпатии: 1

стоп , это Мани ин зе Банк ? или где я что то не пойму:)

Создавать темы 05-Июл-2012 15:01

[Профиль]  [ЛС] 

Спартанец ®

Стаж: 5 лет 6 месяцев

Сообщений: 361

Который - Деньги в Банке ? Если ты про этот релиз, то не. Это к Дню независимости Америкосов, шоу.

Создавать темы 05-Июл-2012 15:20

[Профиль]  [ЛС] 

Emil_Safa

Стаж: 5 лет 2 месяца

Сообщений: 102

Cпасибо Спавртанец,а уже на этой неделе не будет Смакдауна?

Создавать темы 05-Июл-2012 16:25

[Профиль]  [ЛС] 

Спартанец ®

Стаж: 5 лет 6 месяцев

Сообщений: 361

Cкорее всего будет. Этот не считается )

Создавать темы 05-Июл-2012 16:37

[Профиль]  [ЛС] 

NodirAgenT

Стаж: 6 лет 4 месяца

Сообщений: 204

Кароч Qualifying Match Кройс Это Отборочный Тур кто будет участвовать В Money in the Bank Qualifying Match

_________________
Подпись отключена за нарушение правил форума

Создавать темы 05-Июл-2012 18:55

[Профиль]  [ЛС] 

Kroys

Стаж: 5 лет 10 месяцев

Сообщений: 187

Симпатии: 1

окей понял понял)))

Создавать темы 06-Июл-2012 00:02

[Профиль]  [ЛС] 

McFLY

Стаж: 5 лет 5 месяцев

Сообщений: 658

Симпатии: 22

Блин 40 метров осталось :( раздача встала и всё bu

Создавать темы 06-Июл-2012 14:23

[Профиль]  [ЛС] 

LiX

Стаж: 6 лет 2 месяца

Сообщений: 254

Симпатии: 6

McFLY, тоже самое((

Создавать темы 06-Июл-2012 16:43

[Профиль]  [ЛС] 

Akmal&Getto

Стаж: 5 лет 2 месяца

Сообщений: 79

Дайте газзззззззззззззз

Создавать темы 06-Июл-2012 17:55

[Профиль]  [ЛС] 
Показать сообщения:    
Ответить на тему

Текущее время: 22-Авг 17:56

Часовой пояс: UTC + 5



Вы не можете начинать темы
Вы не можете отвечать на сообщения
Вы не можете редактировать свои сообщения
Вы не можете удалять свои сообщения
Вы не можете голосовать в опросах
Вы не можете прикреплять файлы к сообщениям
Вы не можете скачивать файлы