[#89] Метрополис / Metropolis (Фриц Ланг / Fritz Lang) [1927 г., фантастика, драма, HDRip-AVC]

Ответить на тему
 

рыжий ®

Стаж: 7 лет 7 месяцев

Сообщений: 169

Симпатии: 130

-Метрополис / MetropolisThe Complete Restored Version«There can be no understanding between the hands and the brain unless the heart acts as mediator.»- IMDb: Top 250: #89
Год выпуска: 1927
Страна: Германия
Жанр: фантастика, драма
Продолжительность: 02:28:54
Перевод: Не требуется (Немое кино)
Интертитры: Английские
Cубтитры: русские
Режиссер: Фриц Ланг / Fritz Lang-В ролях: Альфред Абель
Густав Фрёлих
Рудольф Кляйн-Рогге
Фриц Расп
Теодор Лоос
Эрвин Бисвангер
Генрих Джордж
Бриджитт Хельм
Фриц Алберти
Грете Бергер
Описание: Немой художественный фильм Фрица Ланга по сценарию и параллельно написанному роману Теа фон Харбоу, масштабная метафорическая и научно-фантастическая антиутопия, ставшая высшей точкой и завершением развития немецкого киноэкспрессионизма. Один из величайших фильмов всех времён. При кажущейся простоте, фильм аллегоричен, каждая деталь наполнена глубоким смыслом. Его образы навсегда врежутся в вашу память. Первый фильм, внесённый в реестр ЮНЕСКО «Память Мира». Фильм стал самым дорогим проектом за всю историю немецкого немого кино. Несмотря на громкий успех у критиков и вполне приличные сборы, он так и не смог окупить расходы на его производство и едва не стал причиной банкротства студии.
Доп. информация: На протяжении XX века были известны только сокращенные версии, что до сих пор приводит к недоразумениям и неправомерным трактовкам авторского замысла. Оригинал авторского монтажа не сохранился. Кроме того, сцены, удаленные из фильма в 1927 году компанией «Paramount», на сегодняшний день не обнаружены. Однако в 2001 году под эгидой Фонда Фридриха Вильгельма Мурнау по различным сохранившимся вариантам фильма была восстановлена компромиссная версия длиной 117 минут, дающая достаточно полное представление о сюжете фильма (в некоторых изданиях на VHS и DVD длина фильма превышает 120 минут из-за того, что был искусственно замедлен темп воспроизведения — никаких дополнительных эпизодов по сравнению с отреставрированной версией в них нет). В 2008 году два аргентинских кинолюбителя нашли в одном из музеев кино Буэнос-Айреса хрупкую пленку. Оказалось, что это отсутствующие фрагменты «Метрополиса». Тогда было найдено в общей сложности 30 минут фильма. Они отреставрированы и вмонтированы в новую версию картины. Обновлённый «Метрополис» показали 12 февраля 2010 одновременно на Берлинском кинофестивале и во Франкфурте. Везде фильм сопровождался музыкой Готфрида Хуппертца в живом исполнении. Фрагменты из аргентинского материала очень обогащают картину и в плане монтажа, и в плане повествования. К сожалению, до наших дней сохранилась лишь 16-миллиметровая негативная копия, которая была скопирована в 70х с 35-миллиметрогого нитропозитива неправильно - поэтому несмотря на усилия по реставрации, не удалось избавиться от дефектов пленки.
-
Качество: HDRip-AVC
Формат: MKV
Видео кодек: H.26x
Аудио кодек: AC3
Видео: x264; 1024*768; 23.976 fps; 1796 kbps; 0.095 bits/pixel
Аудио: AC-3; 6 channels; 256 kbps; 48 KHz
 -

MediaInfo

General
Unique ID : 213622088175326991941404201821203593937 (0xA0B61E1DA6ABDF08351C3A20E85BFAD1)
Complete name : D:\IMDb250\Metropolis (1927).mkv
Format : Matroska
Format version : Version 2
File size : 2.14 GiB
Duration : 2h 28mn
Overall bit rate : 2 053 Kbps
Movie name : Metropolis (1927) HQRip-AVC for NNTT.org by emg81
Encoded date : UTC 2010-12-17 12:19:45
Writing application : mkvmerge v4.4.0 ('Die Wiederkehr') сборка от Nov 23 2010 17:39:43
Writing library : libebml v1.0.0 + libmatroska v1.0.0
Video
ID : 1
Format : AVC
Format/Info : Advanced Video Codec
Format profile : [email protected]
Format settings, CABAC : Yes
Format settings, ReFrames : 3 frames
Muxing mode : Header stripping
Codec ID : V_MPEG4/ISO/AVC
Duration : 2h 28mn
Bit rate : 1 796 Kbps
Width : 1 024 pixels
Height : 768 pixels
Display aspect ratio : 4:3
Frame rate : 23.976 fps
Color space : YUV
Chroma subsampling : 4:2:0
Bit depth : 8 bits
Scan type : Progressive
Bits/(Pixel*Frame) : 0.095
Stream size : 1.83 GiB (86%)
Writing library : x264 core 107
Encoding settings : cabac=1 / ref=3 / deblock=1:0:0 / analyse=0x3:0x133 / me=umh / subme=9 / psy=1 / psy_rd=1.00:0.00 / mixed_ref=1 / me_range=16 / chroma_me=1 / trellis=2 / 8x8dct=1 / cqm=0 / deadzone=21,11 / fast_pskip=0 / chroma_qp_offset=-2 / threads=3 / sliced_threads=0 / nr=0 / decimate=0 / interlaced=0 / constrained_intra=0 / bframes=2 / b_pyramid=1 / b_adapt=1 / b_bias=0 / direct=1 / weightb=1 / open_gop=0 / weightp=2 / keyint=250 / keyint_min=23 / scenecut=40 / intra_refresh=0 / rc_lookahead=40 / rc=2pass / mbtree=1 / bitrate=1796 / ratetol=1.0 / qcomp=0.60 / qpmin=10 / qpmax=51 / qpstep=4 / cplxblur=20.0 / qblur=0.5 / ip_ratio=1.40 / aq=1:1.00
Default : Yes
Forced : No
Audio
ID : 2
Format : AC-3
Format/Info : Audio Coding 3
Mode extension : CM (complete main)
Muxing mode : Header stripping
Codec ID : A_AC3
Duration : 2h 28mn
Bit rate mode : Constant
Bit rate : 256 Kbps
Channel(s) : 6 channels
Channel positions : Front: L C R, Side: L R, LFE
Sampling rate : 48.0 KHz
Bit depth : 16 bits
Compression mode : Lossy
Stream size : 273 MiB (12%)
Default : Yes
Forced : No
Text
ID : 3
Format : UTF-8
Codec ID : S_TEXT/UTF8
Codec ID/Info : UTF-8 Plain Text
Language : Russian
Default : No
Forced : No
Menu
00:00:00.000 : :Chapter 01
00:06:49.450 : :Chapter 02
00:13:40.528 : :Chapter 03
00:18:17.679 : :Chapter 04
00:32:54.931 : :Chapter 05
00:38:13.040 : :Chapter 06
00:45:40.988 : :Chapter 07
00:52:32.274 : :Chapter 08
01:06:28.109 : :Chapter 09
01:09:56.483 : :Chapter 10
01:18:01.677 : :Chapter 11
01:29:18.436 : :Chapter 12
01:34:54.021 : :Chapter 13
01:39:34.343 : :Chapter 14
01:46:31.510 : :Chapter 15
01:56:01.579 : :Chapter 16
02:02:05.276 : :Chapter 17
02:07:08.412 : :Chapter 18
02:14:45.535 : :Chapter 19
02:24:11.643 : :Chapter 20
02:28:53.132 : :Chapter 21

Скриншоты





Создавать темы 05-Июл-2012 08:59

[Профиль]  [ЛС] 

рыжий ®

Стаж: 7 лет 7 месяцев

Сообщений: 169

Симпатии: 130

раздача будет с вечера....

Создавать темы 05-Июл-2012 09:44

[Профиль]  [ЛС] 

PerSey

Стаж: 4 года 7 месяцев

Сообщений: 42

Симпатии: 5

офигительный фильм,смотрел с живой озвучкой в кинотеатре,тогда ещё специально аркестр приезжал, советую.
спасибо.

Создавать темы 27-Янв-2015 20:29

[Профиль]  [ЛС] 

Лочинбек

Стаж: 1 год 3 месяца

Сообщений: 10

скорости дайте мне нужен этот фильм

Создавать темы 09-Янв-2017 22:25

[Профиль]  [ЛС] 

Лочинбек

Стаж: 1 год 3 месяца

Сообщений: 10

рыжий, дай скорости

Создавать темы 09-Янв-2017 22:26

[Профиль]  [ЛС] 
Показать сообщения:    
Ответить на тему

Текущее время: 14-Дек 07:34

Часовой пояс: UTC + 5



Вы не можете начинать темы
Вы не можете отвечать на сообщения
Вы не можете редактировать свои сообщения
Вы не можете удалять свои сообщения
Вы не можете голосовать в опросах
Вы не можете прикреплять файлы к сообщениям
Вы не можете скачивать файлы