Убийство / Doodslag (Питер Куиджперс) [2012 г., Триллер, DVDRip]

Ответить на тему
 

angor ®

Стаж: 6 лет 4 месяца

Сообщений: 13

Убийство / Doodslag- -Год выпуска: 2012
Страна: Голландия, Pupkin Film, Human Film NL, CoBo Fonds
Жанр: Триллер
Продолжительность: 01:24:06
Перевод: Любительский (одноголосый)-Режиссер: Питер Куиджперс
В ролях: Тео Маассен, Жидс Шольтен, Ван Асчат, и Марьям Хасоуни
Описание: Макс работает водителем на скорой помощи. В один день поступает срочный вызов. Женщина рожает с осложнениями и есть угроза жизни ей и ее ребенку. По пути машина сталкивается с бандой, которая перегородила путь, чтоб отвести в больницу парня, который разбил голову катаясь на скутере. Время уходит и Макс бьет парня, пытаясь разблокировать дорогу. Парень умирает в больнице, а в соседней палате лежит спасенная мать и выживший ребенок. Кто такой Макс: герой или убийца?- 
-Качество: DVDRip
Формат: AVI
Видео кодек: XviD
Аудио кодек: AC3
Видео: 720x304 (2.37:1), 25 fps, XviD build 50 ~2191 kbps avg, 0.40 bit/pixel
Аудио: 44.1 kHz, MPEG Layer 3, 2 ch, ~128 kbps avg
-

MI

General
Complete name : ... \Doodslag.2012.DVDRip.1400MB.avi
Format : AVI
Format/Info : Audio Video Interleave
File size : 1.37 GiB
Duration : 1h 24mn
Overall bit rate : 2 330 Kbps
Writing application : VirtualDubMod 1.5.10.3 | www.virtualdub-fr.org || (build 2550/release)
Writing library : VirtualDubMod build 2550/release
Video
ID : 0
Format : MPEG-4 Visual
Format profile : [email protected]
Format settings, BVOP : Yes
Format settings, QPel : No
Format settings, GMC : No warppoints
Format settings, Matrix : Default (MPEG)
Codec ID : XVID
Codec ID/Hint : XviD
Duration : 1h 24mn
Bit rate : 2 192 Kbps
Width : 720 pixels
Height : 304 pixels
Display aspect ratio : 2.35:1
Frame rate : 25.000 fps
Resolution : 24 bits
Colorimetry : 4:2:0
Scan type : Progressive
Bits/(Pixel*Frame) : 0.401
Stream size : 1.29 GiB (94%)
Writing library : XviD 1.2.1 (UTC 2008-12-04)
Audio
ID : 1
Format : MPEG Audio
Format version : Version 1
Format profile : Layer 3
Codec ID : 55
Codec ID/Hint : MP3
Duration : 1h 24mn
Bit rate mode : Constant
Bit rate : 128 Kbps
Channel(s) : 2 channels
Sampling rate : 44.1 KHz
Resolution : 16 bits
Video delay : 19ms
Stream size : 77.0 MiB (5%)
Alignment : Split accross interleaves
Interleave, duration : 40 ms (1.00 video frame)
Interleave, preload duration : 500 ms

Скриншоты





Создавать темы 07-Июл-2012 18:53

[Профиль]  [ЛС] 
Показать сообщения:    
Ответить на тему

Текущее время: 19-Авг 08:51

Часовой пояс: UTC + 5



Вы не можете начинать темы
Вы не можете отвечать на сообщения
Вы не можете редактировать свои сообщения
Вы не можете удалять свои сообщения
Вы не можете голосовать в опросах
Вы не можете прикреплять файлы к сообщениям
Вы не можете скачивать файлы